<?xml version="1.0" encoding="UTF-8"?>
<svg height="100%" width="100%" xmlns="http://www.w3.org/2000/svg">
	<defs>
		<font horiz-adv-x="0" id="web">
			<font-face alphabetic="0" ascent="2210" descent="-514" font-family="" panose-1="2 11 5 2 4 2 4 2 2 3" units-per-em="2048"/>
			<missing-glyph d="M166 1398H1156V0H166ZM314 1250V148H1008V1250Z" horiz-adv-x="1322"/>
			<glyph d="" horiz-adv-x="561" unicode=" "/>
			<glyph d="M203 1434H375L356 404H221ZM291 203Q336 203 369 170T402 92Q402 46 369 14T291 -18Q245 -18 212 14T180 92Q180 138 212 170T291 203Z" horiz-adv-x="582" unicode="!"/>
			<glyph d="M163 1434H308V987H163ZM495 1434H640V987H495Z" horiz-adv-x="803" unicode="&quot;"/>
			<glyph d="M484 1434H610L526 1032H778L864 1434H987L903 1032H1166L1143 926H882L819 626H1100L1073 520H798L710 123H584L670 520H420L336 123H211L295 520H33L53 626H318L379 926H102L123 1032H400ZM506 926L440 626H694L758 926Z" horiz-adv-x="1210" unicode="#"/>
			<glyph d="M512 1616H616V1440Q812 1434 887 1384V1214Q785 1294 616 1300V772Q824 673 900 580T977 370Q977 228 881 131T616 8V-209H512V0Q299 0 166 86V260Q224 209 324 174T512 140V652Q292 758 227 847T162 1059Q162 1204 261 1309T512 1436ZM512 1294Q428 1277 379 1219T330 1080Q330 994 370 939T512 828ZM616 600V148Q809 190 809 356Q809 494 616 600Z" horiz-adv-x="1104" unicode="$"/>
			<glyph d="M424 1456Q577 1456 661 1361T746 1094Q746 922 651 818T404 715Q256 715 168 812T80 1073Q80 1251 173 1353T424 1456ZM418 1346Q323 1346 268 1275T213 1082Q213 961 267 893T414 826Q508 826 561 896T614 1090Q614 1211 561 1278T418 1346ZM1220 1434H1364L444 -10H301ZM1278 721Q1430 721 1515 625T1600 356Q1600 185 1505 81T1258 -22Q1110 -22 1022 76T934 336Q934 514 1028 617T1278 721ZM1272 608Q1176 608 1121 538T1067 344Q1067 225 1121 157T1268 90Q1362 90 1415 160T1468 354Q1468 476 1415 542T1272 608Z" horiz-adv-x="1676" unicode="%"/>
			<glyph d="M658 1458Q736 1458 800 1436T911 1375T984 1279T1010 1154Q1010 1034 941 954T736 819Q805 792 861 753T964 666T1053 563T1134 449Q1215 562 1256 698T1297 983Q1297 1021 1292 1054T1280 1121H1439Q1447 1088 1448 1058T1452 988Q1452 897 1433 805T1382 626T1307 462T1218 319Q1253 271 1282 235T1340 176T1401 140T1473 129Q1503 129 1534 137T1598 157V5Q1562 -9 1522 -16T1445 -23Q1388 -23 1344 -7T1264 36T1192 106T1120 199Q1080 156 1027 116T911 45T771 -4T606 -23Q498 -23 408 4T254 83T154 213T119 390Q119 543 206 651T452 829Q422 851 392 880T338 947T300 1030T286 1130Q286 1209 314 1270T393 1373T511 1436T658 1458ZM576 748Q513 723 460 692T368 620T308 524T286 395Q286 327 311 275T379 188T481 136T606 119Q682 119 746 135T864 179T962 243T1042 320Q981 415 929 482T825 599T713 683T576 748ZM658 1327Q560 1327 501 1274T442 1130Q442 1089 454 1053T489 986T542 931T606 890Q732 934 794 992T856 1140Q856 1190 837 1225T790 1283T727 1316T658 1327Z" horiz-adv-x="1639" unicode="&amp;"/>
			<glyph d="M163 1434H308V987H163Z" horiz-adv-x="471" unicode="'"/>
			<glyph d="M450 1434H598Q284 1054 284 549Q284 48 596 -326H450Q140 28 140 547Q140 1068 450 1434Z" horiz-adv-x="618" unicode="("/>
			<glyph d="M22 1434H170Q482 1068 482 547Q482 28 170 -326H24Q336 48 336 549Q336 1054 22 1434Z" horiz-adv-x="618" unicode=")"/>
			<glyph d="M360 1434H498L475 1130L738 1229L780 1104L506 1048L696 805L586 729L430 994L272 729L162 805L352 1048L76 1104L121 1229L383 1130Z" horiz-adv-x="854" unicode="*"/>
			<glyph d="M635 1067H768V664H1172V530H768V127H635V530H232V664H635Z" horiz-adv-x="1401" unicode="+"/>
			<glyph d="M156 228H316L156 -264H39Z" horiz-adv-x="444" unicode=","/>
			<glyph d="M144 635H690V506H144Z" horiz-adv-x="819" unicode="-"/>
			<glyph d="M223 203Q270 203 303 169T336 90Q336 44 303 11T223 -22Q177 -22 144 11T112 90Q112 136 144 169T223 203Z" horiz-adv-x="444" unicode="."/>
			<glyph d="M658 1434H813L125 -238H-28Z" horiz-adv-x="798" unicode="/"/>
			<glyph d="M569 1458Q1020 1458 1020 723Q1020 543 987 404T893 169T742 24T539 -25Q431 -25 346 22T204 161T116 384T86 688Q86 876 117 1020T210 1261T361 1408T569 1458ZM561 1319Q254 1319 254 696Q254 115 555 115Q852 115 852 707Q852 1319 561 1319Z" horiz-adv-x="1104" unicode="0"/>
			<glyph d="M662 1466H724V0H560V1239Q541 1220 504 1195T422 1147T326 1102T228 1069V1235Q282 1250 342 1275T461 1332T572 1398T662 1466Z" horiz-adv-x="1104" unicode="1"/>
			<glyph d="M528 1458Q616 1458 691 1432T821 1358T907 1237T939 1072Q939 987 919 918T860 788T761 671T620 557Q519 485 453 434T349 338T295 249T280 147H994V0H109V71Q109 163 129 233T195 366T315 492T498 634Q576 690 628 741T713 843T758 946T772 1058Q772 1124 751 1173T695 1254T612 1303T508 1319Q460 1319 414 1306T324 1270T240 1215T165 1144V1320Q234 1387 319 1422T528 1458Z" horiz-adv-x="1104" unicode="2"/>
			<glyph d="M504 1458Q594 1458 667 1433T792 1363T872 1255T901 1116Q901 833 615 752V748Q688 740 750 712T857 641T927 537T953 406Q953 309 916 229T813 93T654 6T449 -25Q244 -25 123 53V229Q268 115 455 115Q530 115 590 134T694 189T761 276T785 391Q785 672 385 672H266V811H379Q733 811 733 1075Q733 1319 463 1319Q311 1319 178 1217V1376Q315 1458 504 1458Z" horiz-adv-x="1104" unicode="3"/>
			<glyph d="M675 1434H850V487H1034V337H850V0H688V337H14V479Q108 585 204 705T387 950T549 1197T675 1434ZM688 1189Q613 1058 546 955T418 768T303 616T199 487H688Z" horiz-adv-x="1104" unicode="4"/>
			<glyph d="M240 1434H903V1286H382L353 865Q385 867 421 868T485 870Q599 870 689 840T841 754T936 618T969 438Q969 333 933 248T830 102T670 8T461 -25Q261 -25 164 35V209Q310 115 463 115Q541 115 603 138T710 202T777 301T801 428Q801 568 707 647T434 727Q405 727 373 726T309 723T246 720T191 715Z" horiz-adv-x="1104" unicode="5"/>
			<glyph d="M696 1458Q844 1458 934 1417V1262Q823 1319 700 1319Q604 1319 527 1276T395 1154T310 965T281 718H285Q384 897 612 897Q706 897 781 865T910 774T993 635T1022 455Q1022 350 988 262T894 110T751 10T571 -25Q463 -25 377 20T232 149T142 356T111 631Q111 818 152 970T270 1231T455 1399T696 1458ZM575 758Q514 758 462 735T372 672T312 580T291 469Q291 395 312 330T371 218T461 142T578 115Q640 115 691 138T778 204T834 304T854 434Q854 509 835 569T780 671T693 735T575 758Z" horiz-adv-x="1104" unicode="6"/>
			<glyph d="M98 1434H1010V1339Q977 1282 930 1197T832 1006T726 778T625 526T542 262T491 0H315Q333 128 370 261T455 523T556 771T659 990T750 1166T817 1286H98Z" horiz-adv-x="1104" unicode="7"/>
			<glyph d="M555 1458Q642 1458 716 1430T844 1353T928 1237T958 1092Q958 993 903 911T757 778Q819 754 868 713T950 622T1002 514T1020 400Q1020 306 986 228T890 94T743 8T555 -23Q453 -23 368 8T221 94T124 228T90 400Q90 457 108 514T159 622T242 713T355 778Q262 830 207 911T152 1092Q152 1171 182 1238T267 1354T395 1430T555 1458ZM556 705Q494 705 441 683T350 623T290 531T268 414Q268 347 288 293T346 201T437 142T556 122Q619 122 672 143T763 202T823 294T845 414Q845 474 824 526T766 619T675 682T556 705ZM556 1320Q503 1320 459 1301T384 1249T336 1173T319 1079Q319 1028 337 984T388 908T464 857T556 839Q605 839 648 858T724 909T775 985T794 1079Q794 1131 775 1175T725 1251T649 1301T556 1320Z" horiz-adv-x="1104" unicode="8"/>
			<glyph d="M555 1458Q663 1458 746 1414T887 1287T974 1082T1004 803Q1004 606 965 452T851 192T668 30T422 -25Q280 -25 172 25V182Q291 115 426 115Q523 115 599 155T729 271T810 460T838 717H834Q742 532 514 532Q422 532 345 564T212 656T125 798T94 979Q94 1085 128 1173T224 1324T370 1423T555 1458ZM541 1319Q482 1319 431 1295T342 1229T283 1128T262 1001Q262 925 282 865T341 763T432 700T551 678Q608 678 658 699T746 757T805 843T827 950Q827 1033 805 1101T746 1217T655 1292T541 1319Z" horiz-adv-x="1104" unicode="9"/>
			<glyph d="M223 1046Q270 1046 303 1014T336 936Q336 890 303 857T223 824Q177 824 144 857T112 936Q112 982 144 1014T223 1046ZM223 203Q270 203 303 169T336 90Q336 44 303 11T223 -22Q177 -22 144 11T112 90Q112 136 144 169T223 203Z" horiz-adv-x="444" unicode=":"/>
			<glyph d="M226 1046Q272 1046 305 1014T338 936Q338 890 305 857T226 824Q179 824 146 857T114 936Q114 982 146 1014T226 1046ZM156 228H316L156 -264H39Z" horiz-adv-x="444" unicode=";"/>
			<glyph d="M1132 1100V950L490 594V590L1132 276V127L272 559V618Z" horiz-adv-x="1401" unicode="&lt;"/>
			<glyph d="M232 876H1172V744H232ZM232 450H1172V318H232Z" horiz-adv-x="1401" unicode="="/>
			<glyph d="M272 1100L1132 618V559L272 127V276L916 588V594L272 950Z" horiz-adv-x="1401" unicode="&gt;"/>
			<glyph d="M448 1458Q524 1458 591 1438T708 1378T788 1280T817 1143Q817 1069 791 1011T725 904T640 814T554 730T489 644T463 545Q463 499 474 461T496 398H335Q326 424 319 465T312 548Q312 612 337 663T401 760T484 846T567 930T630 1019T656 1122Q656 1170 637 1207T587 1269T513 1306T424 1319Q255 1319 131 1186V1362Q284 1458 448 1458ZM425 203Q470 203 503 170Q536 139 536 92Q536 46 503 14Q469 -18 425 -18Q381 -18 347 14Q314 46 314 92Q314 139 347 170Q380 203 425 203Z" horiz-adv-x="918" unicode="?"/>
			<glyph d="M1002 1454Q1342 1454 1565 1252T1788 725Q1788 487 1670 334T1384 182Q1165 182 1164 420H1159Q1086 182 872 182Q735 182 651 283T568 555Q568 781 683 930T987 1080Q1059 1080 1115 1043T1188 950H1192Q1194 978 1202 1065H1327Q1280 514 1280 504Q1280 297 1399 297Q1507 297 1578 414T1650 717Q1650 992 1476 1166T994 1340Q697 1340 503 1132T309 612Q309 305 493 116T991 -72Q1238 -72 1413 10V-114Q1240 -188 981 -188Q617 -188 394 31T172 606Q172 972 405 1213T1002 1454ZM985 964Q861 964 784 846T708 553Q708 435 759 367T897 299Q1021 299 1093 422T1166 750Q1166 964 985 964Z" horiz-adv-x="1956" unicode="@"/>
			<glyph d="M572 1434H746L1298 0H1112L960 402H352L209 0H22ZM654 1260Q644 1199 631 1164L408 553H905L680 1164Q669 1194 658 1260Z" horiz-adv-x="1321" unicode="A"/>
			<glyph d="M188 1434H596Q782 1434 891 1343T1000 1106Q1000 984 934 894T752 766V762Q897 745 984 652T1071 412Q1071 228 939 114T606 0H188ZM356 1282V819H528Q666 819 745 885T824 1073Q824 1282 549 1282ZM356 668V152H584Q732 152 813 222T895 414Q895 668 549 668Z" horiz-adv-x="1174" unicode="B"/>
			<glyph d="M826 1458Q1030 1458 1164 1399V1220Q1010 1306 824 1306Q577 1306 423 1141T270 700Q270 438 413 282T790 127Q1006 127 1164 223V60Q1005 -24 768 -24Q462 -24 278 173T94 690Q94 1034 301 1246T826 1458Z" horiz-adv-x="1268" unicode="C"/>
			<glyph d="M188 1434H584Q1342 1434 1342 735Q1342 403 1131 201T568 0H188ZM356 1282V152H570Q852 152 1009 303T1166 731Q1166 1282 580 1282Z" horiz-adv-x="1436" unicode="D"/>
			<glyph d="M188 1434H916V1282H356V805H874V654H356V152H948V0H188Z" horiz-adv-x="1036" unicode="E"/>
			<glyph d="M188 1434H916V1282H356V786H874V635H356V0H188Z" horiz-adv-x="1000" unicode="F"/>
			<glyph d="M838 1458Q1072 1458 1231 1382V1196Q1057 1306 819 1306Q578 1306 424 1140T270 710Q270 438 413 282T801 127Q969 127 1092 194V596H778V748H1260V98Q1044 -24 780 -24Q473 -24 283 174T94 698Q94 1031 304 1244T838 1458Z" horiz-adv-x="1405" unicode="G"/>
			<glyph d="M188 1434H356V805H1098V1434H1266V0H1098V654H356V0H188Z" horiz-adv-x="1454" unicode="H"/>
			<glyph d="M188 1434H356V0H188Z" horiz-adv-x="545" unicode="I"/>
			<glyph d="M387 1434H555V514Q555 259 447 117T158 -24Q74 -24 20 0V166Q74 127 160 127Q387 127 387 512Z" horiz-adv-x="731" unicode="J"/>
			<glyph d="M188 1434H356V760H360Q374 782 398 809L934 1434H1143L528 746L1186 0H952L398 656Q367 693 360 706H356V0H188Z" horiz-adv-x="1188" unicode="K"/>
			<glyph d="M188 1434H356V152H932V0H188Z" horiz-adv-x="964" unicode="L"/>
			<glyph d="M188 1434H410L850 434Q901 319 916 262H922Q965 380 991 438L1440 1434H1650V0H1483V962Q1483 1076 1497 1241H1493Q1469 1144 1450 1102L960 0H878L389 1094Q368 1142 346 1241H342Q350 1155 350 960V0H188Z" horiz-adv-x="1839" unicode="M"/>
			<glyph d="M188 1434H406L1124 309Q1169 239 1182 213H1186Q1176 275 1176 424V1434H1344V0H1138L400 1143Q372 1186 354 1233H348Q356 1187 356 1036V0H188Z" horiz-adv-x="1532" unicode="N"/>
			<glyph d="M790 1458Q1087 1458 1268 1258T1450 735Q1450 384 1264 180T766 -24Q461 -24 277 177T94 700Q94 1046 281 1252T790 1458ZM778 1306Q552 1306 411 1143T270 715Q270 450 407 288T766 127Q1002 127 1138 281T1274 712Q1274 996 1142 1151T778 1306Z" horiz-adv-x="1544" unicode="O"/>
			<glyph d="M188 1434H582Q812 1434 938 1322T1065 1006Q1065 802 924 672T545 542H356V0H188ZM356 1282V694H532Q706 694 797 773T889 998Q889 1282 553 1282Z" horiz-adv-x="1147" unicode="P"/>
			<glyph d="M790 1458Q1086 1458 1268 1258T1450 735Q1450 384 1264 180Q1220 131 1170 96L1573 -193H1268L998 9Q892 -24 766 -24Q462 -24 277 177Q94 378 94 700Q94 1047 281 1252Q469 1458 790 1458ZM778 1306Q552 1306 411 1143T270 715Q270 451 407 288Q545 127 766 127Q1002 127 1138 281T1274 712Q1274 997 1142 1151Q1010 1306 778 1306Z" horiz-adv-x="1544" unicode="Q"/>
			<glyph d="M188 1434H616Q710 1434 789 1410T927 1339T1019 1219T1052 1052Q1052 977 1029 914T965 803T865 719T734 666V662Q770 646 796 625T847 577T894 513T947 431L1216 0H1016L776 402Q743 458 712 497T648 562T578 598T494 610H356V0H188ZM356 1282V762H584Q647 762 700 781T793 835T854 922T876 1038Q876 1153 801 1217T586 1282Z" horiz-adv-x="1225" unicode="R"/>
			<glyph d="M621 1458Q833 1458 930 1407V1218Q803 1306 604 1306Q549 1306 494 1294T396 1257T326 1190T299 1090Q299 1035 319 995T380 922T477 858T610 790Q687 752 756 710T877 617T959 504T990 362Q990 256 948 182T836 63T674 -3T480 -24Q446 -24 396 -18T294 -2T195 23T121 58V256Q155 226 202 202T302 161T408 136T506 127Q661 127 737 184T814 350Q814 408 788 451T718 529T611 597T479 666Q404 704 339 743T226 829T150 935T123 1075Q123 1173 166 1245T279 1365T438 1435T621 1458Z" horiz-adv-x="1088" unicode="S"/>
			<glyph d="M41 1434H1036V1282H622V0H454V1282H41Z" horiz-adv-x="1073" unicode="T"/>
			<glyph d="M170 1434H338V568Q338 127 710 127Q1069 127 1069 553V1434H1237V580Q1237 -24 692 -24Q170 -24 170 557Z" horiz-adv-x="1407" unicode="U"/>
			<glyph d="M18 1434H205L602 297Q621 242 631 170H635Q643 230 668 299L1073 1434H1254L723 0H538Z" horiz-adv-x="1272" unicode="V"/>
			<glyph d="M26 1434H211L516 334Q535 265 540 190H545Q550 243 576 334L893 1434H1054L1358 326Q1374 269 1382 192H1386Q1390 244 1413 330L1706 1434H1888L1483 0H1286L991 1048Q972 1115 968 1194H964Q958 1120 938 1050L641 0H446Z" horiz-adv-x="1913" unicode="W"/>
			<glyph d="M64 1434H270L563 930Q592 880 614 830H618Q650 896 674 934L979 1434H1172L721 723L1178 0H973L643 549Q628 574 610 620H606Q596 597 572 549L232 0H26L506 721Z" horiz-adv-x="1208" unicode="X"/>
			<glyph d="M18 1434H209L530 786Q536 774 565 698H568Q578 732 606 786L942 1434H1120L647 530V0H479V526Z" horiz-adv-x="1132" unicode="Y"/>
			<glyph d="M100 1434H1124V1394L284 152H1104V0H33V47L866 1282H100Z" horiz-adv-x="1168" unicode="Z"/>
			<glyph d="M200 1434H568V1315H346V-207H568V-326H200Z" horiz-adv-x="618" unicode="["/>
			<glyph d="M-26 1434H129L798 -240H647Z" horiz-adv-x="776" unicode="\"/>
			<glyph d="M53 1434H420V-326H53V-207H274V1315H53Z" horiz-adv-x="618" unicode="]"/>
			<glyph d="M652 1458H717L1174 624H1024L692 1243H686L377 624H230Z" horiz-adv-x="1401" unicode="^"/>
			<glyph d="M0 -178H850V-297H0Z" horiz-adv-x="850" unicode="_"/>
			<glyph d="M82 1546H250L471 1218H344Z" horiz-adv-x="549" unicode="`"/>
			<glyph d="M538 1048Q899 1048 899 666V0H735V160H731Q624 -24 416 -24Q263 -24 176 57T90 272Q90 559 428 606L735 649Q735 910 524 910Q339 910 190 784V952Q341 1048 538 1048ZM735 518L488 484Q374 468 316 427T258 284Q258 209 311 161T454 114Q576 114 655 199T735 416Z" horiz-adv-x="1042" unicode="a"/>
			<glyph d="M166 1516H330V844H334Q455 1048 688 1048Q885 1048 996 910T1108 542Q1108 285 983 130T641 -24Q438 -24 334 148H330V0H166ZM647 910Q504 910 417 810T330 561V418Q330 291 412 202T622 114Q771 114 855 228T940 545Q940 716 861 813T647 910Z" horiz-adv-x="1204" unicode="b"/>
			<glyph d="M628 1048Q763 1048 866 998V830Q752 910 622 910Q465 910 364 797T264 502Q264 322 358 218T612 114Q746 114 864 203V47Q746 -24 584 -24Q365 -24 230 118T96 488Q96 741 241 894T628 1048Z" horiz-adv-x="946" unicode="c"/>
			<glyph d="M876 1516H1040V0H876V174H872Q758 -24 520 -24Q327 -24 211 113T96 488Q96 742 224 895T565 1048Q776 1048 872 882H876ZM586 910Q436 910 350 800T264 496Q264 319 346 216T568 114Q705 114 790 213T876 463V614Q876 738 794 824T586 910Z" horiz-adv-x="1206" unicode="d"/>
			<glyph d="M568 1048Q769 1048 879 918T989 557V471H266Q270 300 358 207T600 114Q773 114 918 228V74Q783 -24 561 -24Q344 -24 220 115T96 508Q96 747 231 897T568 1048ZM565 910Q449 910 368 827T268 610H821Q820 752 752 831T565 910Z" horiz-adv-x="1071" unicode="e"/>
			<glyph d="M553 1538Q628 1538 672 1520V1372Q624 1399 563 1399Q391 1399 391 1182V1024H631V884H391V0H228V884H53V1024H228V1190Q228 1351 321 1444T553 1538Z" horiz-adv-x="641" unicode="f"/>
			<glyph d="M565 1048Q772 1048 872 882H876V1024H1040V82Q1040 -482 500 -482Q310 -482 168 -410V-246Q341 -342 498 -342Q876 -342 876 60V172H872Q755 -24 520 -24Q329 -24 212 112T96 479Q96 740 221 894T565 1048ZM588 910Q436 910 350 799T264 490Q264 319 346 216T565 114Q703 114 789 212T876 463V614Q876 736 793 823T588 910Z" horiz-adv-x="1206" unicode="g"/>
			<glyph d="M166 1516H330V854H334Q452 1048 670 1048Q1016 1048 1016 631V0H852V590Q852 910 614 910Q494 910 412 817T330 580V0H166Z" horiz-adv-x="1159" unicode="h"/>
			<glyph d="M250 1497Q295 1497 326 1466T358 1390Q358 1346 326 1315T250 1284Q206 1284 175 1314T144 1390Q144 1436 175 1466T250 1497ZM166 1024H330V0H166Z" horiz-adv-x="496" unicode="i"/>
			<glyph d="M166 1024H330V43Q330 -209 228 -345T-62 -482Q-132 -482 -198 -450V-297Q-124 -342 -58 -342Q166 -342 166 16ZM250 1497Q295 1497 326 1466T358 1390Q358 1346 326 1315T250 1284Q206 1284 175 1314T144 1390Q144 1436 175 1466T250 1497Z" horiz-adv-x="496" unicode="j"/>
			<glyph d="M166 1516H330V555H334L764 1024H979L504 530L1016 0H786L334 492H330V0H166Z" horiz-adv-x="1018" unicode="k"/>
			<glyph d="M166 1516H330V0H166Z" horiz-adv-x="496" unicode="l"/>
			<glyph d="M652 1048Q757 1048 835 989T942 836Q1056 1048 1282 1048Q1620 1048 1620 631V0H1456V588Q1456 758 1403 834T1227 910Q1122 910 1048 814T975 584V0H811V608Q811 910 578 910Q470 910 400 819T330 584V0H166V1024H330V862H334Q443 1048 652 1048Z" horiz-adv-x="1764" unicode="m"/>
			<glyph d="M670 1048Q838 1048 927 939T1016 626V0H852V584Q852 910 614 910Q491 910 410 817T330 584V0H166V1024H330V854H334Q450 1048 670 1048Z" horiz-adv-x="1159" unicode="n"/>
			<glyph d="M618 1048Q847 1048 975 907T1104 516Q1104 271 965 123T594 -24Q367 -24 231 119T96 500Q96 758 237 903T618 1048ZM606 910Q448 910 356 802T264 506Q264 324 357 219T606 114Q765 114 850 217T936 510Q936 702 850 806T606 910Z" horiz-adv-x="1200" unicode="o"/>
			<glyph d="M688 1048Q886 1048 997 910T1108 542Q1108 285 983 130T641 -24Q442 -24 334 148H330V-471H166V1024H330V844H334Q455 1048 688 1048ZM647 910Q504 910 417 810T330 561V418Q330 291 412 202T622 114Q771 114 855 228T940 545Q940 716 861 813T647 910Z" horiz-adv-x="1204" unicode="p"/>
			<glyph d="M568 1048Q778 1048 872 882H876V1024H1040V-471H876V176H872Q765 -24 522 -24Q329 -24 212 113T96 488Q96 743 224 895T568 1048ZM584 910Q436 910 350 800T264 492Q264 315 347 214T561 114Q705 114 790 212T876 461V610Q876 736 793 823T584 910Z" horiz-adv-x="1206" unicode="q"/>
			<glyph d="M602 1042Q666 1042 700 1028V858Q657 891 576 891Q471 891 400 792T330 522V0H166V1024H330V813H334Q369 921 441 981T602 1042Z" horiz-adv-x="712" unicode="r"/>
			<glyph d="M498 1048Q631 1048 736 1002V836Q623 910 476 910Q430 910 393 899T329 870T288 824T274 766Q274 726 288 699T331 651T399 613T490 576Q558 550 612 522T704 460T762 381T783 274Q783 198 749 142T660 49T531 -6T378 -24Q220 -24 104 37V213Q238 114 399 114Q615 114 615 258Q615 299 596 327T546 378T472 417T381 454Q313 481 261 508T175 570T123 649T106 752Q106 824 139 879T227 972T352 1029T498 1048Z" horiz-adv-x="869" unicode="s"/>
			<glyph d="M383 1327V1024H641V884H383V307Q383 204 418 160T534 116Q596 116 641 150V10Q583 -22 488 -22Q219 -22 219 278V884H43V1024H219V1274Z" horiz-adv-x="694" unicode="t"/>
			<glyph d="M144 1024H307V438Q307 114 555 114Q675 114 752 202T830 434V1024H994V0H830V162H826Q724 -24 510 -24Q144 -24 144 412Z" horiz-adv-x="1159" unicode="u"/>
			<glyph d="M14 1024H194L454 280Q483 198 490 137H494Q504 214 526 276L798 1024H971L563 0H402Z" horiz-adv-x="981" unicode="v"/>
			<glyph d="M24 1024H196L408 254Q418 219 422 162H430Q433 206 448 256L684 1024H834L1046 252Q1056 215 1061 160H1069Q1071 199 1086 252L1294 1024H1456L1149 0H979L768 733Q756 775 752 828H748Q745 792 727 735L498 0H334Z" horiz-adv-x="1480" unicode="w"/>
			<glyph d="M41 1024H232L430 674Q452 635 473 594H477L733 1024H914L570 506L908 0H717L516 332Q497 363 471 410H467Q462 401 420 332L215 0H26L375 502Z" horiz-adv-x="940" unicode="x"/>
			<glyph d="M14 1024H196L473 236Q478 221 494 158H500Q505 182 520 234L811 1024H981L510 -164Q384 -482 156 -482Q92 -482 49 -469V-322Q102 -340 146 -340Q270 -340 332 -192L414 2Z" horiz-adv-x="991" unicode="y"/>
			<glyph d="M90 1024H880V977L274 140H874V0H33V51L639 884H90Z" horiz-adv-x="926" unicode="z"/>
			<glyph d="M555 1434V1306Q396 1302 396 1108V815Q396 605 246 557V553Q396 508 396 297V8Q396 -103 431 -150T555 -200V-326Q248 -322 248 -16V284Q248 486 92 496V612Q248 622 248 828V1120Q248 1430 555 1434Z" horiz-adv-x="618" unicode="{"/>
			<glyph d="M172 1566H320V-482H172Z" horiz-adv-x="490" unicode="|"/>
			<glyph d="M66 1434Q372 1430 372 1120V828Q372 622 528 612V496Q372 486 372 284V-16Q372 -322 66 -326V-200Q153 -198 189 -150T226 8V297Q226 508 375 553V557Q226 605 226 815V1108Q226 1302 66 1306Z" horiz-adv-x="618" unicode="}"/>
			<glyph d="M490 750Q596 750 725 662Q857 572 922 572Q983 572 1020 621T1059 750H1194Q1187 602 1113 521T914 440Q805 440 649 549Q552 616 490 616Q350 616 344 440H209Q214 583 288 666T490 750Z" horiz-adv-x="1401" unicode="~"/>
			<glyph d="" horiz-adv-x="561" unicode=" "/>
			<glyph d="M362 1030L700 690L1040 1030L1134 936L794 596L1134 258L1040 164L700 504L362 164L268 258L608 596L268 936Z" horiz-adv-x="1401" unicode="×"/>
			<glyph d="M574 1042Q698 1042 785 1011T927 927T1007 798T1032 633V0H882V623Q882 761 806 835T575 910Q503 910 448 891T354 844T293 779T265 708H508V590Q401 569 347 512T293 365V0H143V375Q143 462 193 515T337 594H116V704Q130 775 165 836T258 944T394 1016T574 1042Z" horiz-adv-x="1175" unicode="ก"/>
			<glyph d="M400 1042Q491 1042 557 1022T667 966T736 880T771 772Q672 741 618 650T564 420V134H767Q844 134 888 173T932 284V1024H1082V274Q1082 225 1068 176T1020 88T927 24T781 0H414V422Q414 562 466 648T621 774Q618 797 605 822T568 869T500 903T395 917Q324 917 268 896T188 838Q193 840 203 841T222 842Q259 842 290 829T345 793T381 738T394 670Q394 633 381 601T345 546T290 510T222 497Q176 497 141 514T83 560T48 631T37 720Q37 774 55 831T116 935T228 1012T400 1042ZM221 747Q205 747 191 741T166 724T150 699T144 669Q144 637 166 614T221 592Q237 592 251 598T276 614T293 639T299 669Q299 701 276 724T221 747Z" horiz-adv-x="1235" unicode="ข"/>
			<glyph d="M246 1034L395 899L524 1034Q575 1029 620 1010T700 959T755 880T776 772Q674 741 619 650T564 420V134H781Q863 134 910 173T957 284V1024H1107V274Q1107 225 1093 176T1043 88T947 24T795 0H414V422Q414 562 467 648T626 774Q626 794 620 815T602 855T571 887T525 907L395 774L248 907Q232 896 218 883T194 854T178 822T170 787Q179 792 195 794T222 797Q259 797 290 784T345 748T381 693T394 625Q394 588 381 556T345 501T290 465T222 452Q176 452 141 467T83 509T48 574T37 655Q37 716 51 774T93 883T159 972T246 1034ZM221 702Q205 702 191 696T166 679T150 654T144 624Q144 592 166 569T221 547Q237 547 251 553T276 569T293 594T299 624Q299 656 276 679T221 702Z" horiz-adv-x="1260" unicode="ฃ"/>
			<glyph d="M565 1042Q793 1042 913 940T1034 633V0H884V623Q884 679 868 731T815 822T717 885T565 909Q478 909 418 886T320 827T266 748T250 662Q250 602 263 548T289 450Q312 498 340 542T403 619T482 673T580 693Q620 693 655 681T715 647T755 592T770 517Q770 480 757 448T720 394T665 358T597 345Q560 345 528 358T474 394T438 448T425 517Q425 527 427 531Q411 515 393 487T359 422T332 335T322 216V0H172V274Q171 322 159 365T135 452T111 547T100 662Q100 755 132 826T225 945T372 1017T565 1042ZM598 595Q582 595 567 589T542 572T526 548T520 518Q520 486 543 463T598 440Q614 440 628 446T652 462T669 487T675 518Q675 550 652 572T598 595Z" horiz-adv-x="1177" unicode="ค"/>
			<glyph d="M402 1034L565 869L727 1032Q789 1024 844 999T942 927T1009 808T1034 633V0H884V623Q884 677 876 722T852 802T807 859T738 888L565 723L391 888Q354 881 327 859T283 807T258 738T250 662Q250 602 263 548T289 450Q312 488 340 523T403 584T482 627T580 643Q620 643 655 631T715 597T755 542T770 467Q770 430 757 398T720 344T665 308T597 295Q560 295 528 308T474 344T438 398T425 467Q425 477 427 481Q411 468 393 446T359 393T332 324T322 237V0H172V274Q171 322 159 365T135 452T111 547T100 662Q100 754 126 820T196 930T293 1000T402 1034ZM598 545Q582 545 567 539T542 522T526 498T520 468Q520 436 543 413T598 390Q614 390 628 396T652 412T669 437T675 468Q675 500 652 522T598 545Z" horiz-adv-x="1177" unicode="ฅ"/>
			<glyph d="M414 268Q389 265 368 255T332 230T309 195T301 154Q301 116 318 100T357 84Q380 84 397 99T414 153ZM246 1034L395 899L524 1034Q575 1029 620 1010T700 959T755 880T776 772Q674 741 619 650T564 420V364Q614 357 669 341T776 301T873 246T952 179V1024H1102V0H952Q920 50 872 94T770 172T662 231T564 264V176Q564 131 553 95T518 35T454 -2T357 -16Q261 -16 214 30T167 154Q167 202 187 240T241 305T320 348T414 368V422Q414 562 467 648T626 774Q626 794 620 815T602 855T571 887T525 907L395 774L248 907Q232 896 218 883T194 854T178 822T170 787Q179 792 195 794T222 797Q259 797 290 784T345 748T381 693T394 625Q394 588 381 556T345 501T290 465T222 452Q176 452 141 467T83 509T48 574T37 655Q37 716 51 774T93 883T159 972T246 1034ZM221 702Q205 702 191 696T166 679T150 654T144 624Q144 592 166 569T221 547Q237 547 251 553T276 569T293 594T299 624Q299 656 276 679T221 702Z" horiz-adv-x="1268" unicode="ฆ"/>
			<glyph d="M466 1034Q503 1034 534 1021T589 984T626 929T639 861V0H486L0 462V644L489 178V690Q484 689 477 689Q471 689 466 689Q429 689 397 702T343 738T307 792T294 861Q294 898 307 929T343 984T397 1021T466 1034ZM467 939Q451 939 436 933T411 916T395 892T389 862Q389 830 412 807T467 784Q483 784 497 790T521 806T538 831T544 862Q544 894 521 916T467 939Z" horiz-adv-x="795" unicode="ง"/>
			<glyph d="M463 1042Q574 1042 657 1011T797 926T881 797T909 633V0H760L517 341Q499 305 457 278T365 252Q328 252 296 265T242 301T206 355T193 424Q193 461 205 492T242 547T300 584T378 597Q429 597 476 571T568 483L759 217V631Q759 688 742 739T689 827T597 887T463 909Q414 909 362 896T261 861T164 808T80 741V911Q155 974 251 1008T463 1042ZM366 502Q333 502 310 479T288 425Q288 393 311 370T366 347Q398 347 420 369T443 425Q443 457 420 479T366 502Z" horiz-adv-x="1042" unicode="จ"/>
			<glyph d="M535 1042Q646 1042 729 1011T868 926T952 797T980 633V368Q1029 364 1074 348T1153 306T1207 242T1227 157Q1227 119 1215 87T1179 32T1120 -3T1037 -16Q979 -16 939 -2T875 35T840 95T830 176V259Q775 250 719 225T613 165T520 87T445 0H295V342Q290 341 283 341Q277 341 272 341Q235 341 203 354T149 390T113 444T100 513Q100 550 113 581T149 636T203 673T272 686Q309 686 340 673T395 636T432 581T445 513V171Q480 207 521 239T611 296T714 339T830 364V630Q830 687 813 738T761 827T669 887T535 909Q486 909 434 896T333 861T236 808T152 741V911Q227 974 323 1008T535 1042ZM273 591Q257 591 242 585T217 568T201 544T195 514Q195 482 218 459T273 436Q289 436 303 442T327 458T344 483T350 514Q350 546 327 568T273 591ZM980 262V157Q980 116 997 99T1037 83Q1059 83 1076 99T1093 153Q1093 197 1062 227T980 262Z" horiz-adv-x="1267" unicode="ฉ"/>
			<glyph d="M1026 1108H1182Q1173 1066 1150 1031T1095 970T1027 924T954 893Q980 886 1005 868T1049 821T1080 754T1092 668V274Q1092 225 1079 176T1035 88T951 24T818 0H414V422Q414 562 466 648T621 774Q618 797 605 822T568 869T500 903T395 917Q324 917 268 896T188 838Q193 840 203 841T222 842Q259 842 290 829T345 793T381 738T394 670Q394 633 381 601T345 546T290 510T222 497Q176 497 141 514T83 560T48 631T37 720Q37 774 55 831T116 935T228 1012T400 1042Q491 1042 557 1022T667 966T736 880T771 772Q672 741 618 650T564 420V134H804Q868 134 905 173T942 284V668Q942 706 933 738T910 795T876 837T836 863V924Q917 945 963 992T1026 1108ZM221 747Q205 747 191 741T166 724T150 699T144 669Q144 637 166 614T221 592Q237 592 251 598T276 614T293 639T299 669Q299 701 276 724T221 747Z" horiz-adv-x="1231" unicode="ช"/>
			<glyph d="M1041 1108H1197Q1188 1066 1165 1031T1111 970T1043 924T970 893Q996 886 1021 868T1065 821T1095 754T1107 668V274Q1107 225 1094 176T1050 88T966 24T833 0H414V422Q414 562 467 648T626 774Q626 794 620 815T602 855T571 887T525 907L395 774L248 907Q232 896 218 883T194 854T178 822T170 787Q179 792 195 794T222 797Q259 797 290 784T345 748T381 693T394 625Q394 588 381 556T345 501T290 465T222 452Q176 452 141 467T83 509T48 574T37 655Q37 716 51 774T93 883T159 972T246 1034L395 899L524 1034Q575 1029 620 1010T700 959T755 880T776 772Q674 741 619 650T564 420V134H819Q883 134 920 173T957 284V668Q957 706 948 738T925 795T891 837T851 863V924Q932 945 978 992T1041 1108ZM221 702Q205 702 191 696T166 679T150 654T144 624Q144 592 166 569T221 547Q237 547 251 553T276 569T293 594T299 624Q299 656 276 679T221 702Z" horiz-adv-x="1246" unicode="ซ"/>
			<glyph d="M560 1042Q685 1042 769 1011T904 927T976 798T998 633V364Q1043 357 1096 342T1201 304T1301 249T1386 178V1024H1536V0H1386Q1358 46 1311 89T1209 169T1098 230T998 264V176Q998 131 987 95T952 35T888 -2T791 -16Q695 -16 648 30T601 154Q601 202 621 240T675 305T754 348T848 368V623Q848 692 832 745T782 835T693 891T561 910Q490 910 438 891T351 844T296 779T271 708H509V590Q402 569 348 512T294 365V328Q299 329 305 329Q312 329 317 329Q354 329 385 316T440 280T476 225T489 157Q489 120 476 88T440 33T385 -3T317 -16Q280 -16 248 -3T193 33T157 88T144 157V375Q144 462 194 515T337 594H122V704Q136 775 168 836T254 944T384 1016T560 1042ZM316 234Q300 234 286 228T261 211T245 186T239 156Q239 124 261 101T316 79Q332 79 346 85T371 101T388 126T394 156Q394 188 371 211T316 234ZM848 268Q823 265 802 255T766 230T743 195T735 154Q735 116 752 100T791 84Q814 84 831 99T848 153Z" horiz-adv-x="1702" unicode="ฌ"/>
			<glyph d="M1498 -25V-193Q1470 -228 1429 -262T1336 -323T1221 -368T1086 -385Q1034 -385 994 -372T928 -335T887 -280T874 -213Q874 -178 886 -148T920 -96T972 -61T1037 -49Q1072 -49 1102 -61T1154 -96T1188 -148T1201 -213Q1201 -227 1197 -246T1182 -279Q1221 -270 1266 -246T1355 -189T1436 -113T1498 -25ZM1038 -143Q1008 -143 988 -163T968 -212Q968 -242 988 -262T1038 -282Q1067 -282 1087 -262T1107 -212Q1107 -183 1087 -163T1038 -143ZM316 234Q300 234 286 228T261 211T245 186T239 156Q239 124 261 101T316 79Q332 79 346 85T371 101T388 126T394 156Q394 188 371 211T316 234ZM560 1042Q685 1042 769 1011T904 927T976 798T998 633V134H1248Q1312 134 1349 173T1386 284V1024H1536V274Q1536 225 1523 176T1479 88T1395 24T1262 0H848V623Q848 692 832 745T782 835T693 891T561 910Q490 910 438 891T351 844T296 779T271 708H509V590Q402 569 348 512T294 365V328Q299 329 305 329Q312 329 317 329Q354 329 385 316T440 280T476 225T489 157Q489 120 476 88T440 33T385 -3T317 -16Q280 -16 248 -3T193 33T157 88T144 157V375Q144 462 194 515T337 594H122V704Q136 775 168 836T254 944T384 1016T560 1042Z" horiz-adv-x="1689" unicode="ญ"/>
			<glyph d="M496 -183Q464 -183 441 -189T405 -205T385 -228T379 -256Q379 -280 394 -295T436 -311Q462 -311 482 -300T516 -273T540 -234T553 -190Q545 -188 527 -185T496 -183ZM644 1042Q768 1042 852 1011T987 927T1060 798T1082 633V-410H916Q854 -326 784 -279T645 -212Q639 -245 623 -278T581 -339T519 -383T436 -401Q404 -401 376 -392T328 -364T296 -319T284 -256Q284 -219 299 -189T342 -137T409 -104T498 -93Q505 -93 515 -93T535 -95T554 -97T567 -99Q575 -58 595 -27T644 18H777Q727 0 698 -36T660 -117Q743 -138 814 -176T932 -257V623Q932 692 916 745T866 835T777 891T645 910Q573 910 521 891T434 844T380 779T355 708H593V590Q486 569 437 512T388 365V157Q388 120 375 88T338 33T283 -3T215 -16Q178 -16 146 -3T92 33T56 88T43 157Q43 194 56 225T92 280T146 316T215 329Q220 329 226 329Q233 329 238 328V375Q238 463 285 515T427 594H206V704Q220 775 252 836T337 944T467 1016T644 1042ZM216 234Q184 234 161 211T138 156Q138 140 144 126T160 101T185 85T216 79Q248 79 270 101T293 156Q293 172 287 186T270 211T246 228T216 234Z" horiz-adv-x="1225" unicode="ฎ"/>
			<glyph d="M434 -136Q381 -136 354 -166T328 -235Q328 -262 342 -279T384 -296Q411 -296 428 -281T455 -243T471 -192T479 -140Q473 -138 460 -137T434 -136ZM644 1042Q768 1042 852 1011T987 927T1060 798T1082 633V-410H932Q927 -385 919 -359T901 -311T873 -276T834 -263Q810 -263 794 -276T769 -309T755 -349T749 -383H657Q643 -300 622 -246T567 -176Q562 -218 549 -256T515 -323T461 -369T384 -386Q315 -386 274 -347T233 -235Q233 -188 249 -152T293 -93T357 -58T433 -46Q447 -46 463 -48T489 -52Q506 22 543 69T638 143H798Q758 128 722 109T657 64T609 3T580 -79Q624 -100 659 -143T710 -256Q732 -211 764 -193T832 -175Q860 -175 887 -187T932 -221V623Q932 692 916 745T866 835T777 891T645 910Q573 910 521 891T434 844T380 779T355 708H593V590Q486 569 437 512T388 365V157Q388 120 375 88T338 33T283 -3T215 -16Q178 -16 146 -3T92 33T56 88T43 157Q43 194 56 225T92 280T146 316T215 329Q220 329 226 329Q233 329 238 328V375Q238 463 285 515T427 594H206V704Q220 775 252 836T337 944T467 1016T644 1042ZM216 234Q184 234 161 211T138 156Q138 140 144 126T160 101T185 85T216 79Q248 79 270 101T293 156Q293 172 287 186T270 211T246 228T216 234Z" horiz-adv-x="1225" unicode="ฏ"/>
			<glyph d="M776 -31Q835 -31 867 -64T899 -148V-410H796L676 -358L563 -410H474Q467 -365 460 -334T446 -284T431 -252T412 -234Q404 -279 386 -312T344 -367T289 -399T225 -410Q159 -410 118 -372T78 -266Q78 -195 128 -151T272 -108Q286 -108 306 -110T332 -114Q335 -97 339 -79T353 -43H456Q444 -66 437 -89T425 -135Q442 -142 461 -156T498 -193T531 -250T557 -328L676 -273L819 -335V-246Q814 -249 799 -253T768 -257Q744 -257 723 -248T687 -224T663 -188T655 -143Q655 -121 663 -101T686 -65T724 -40T776 -31ZM270 -200Q174 -200 174 -266Q174 -289 188 -302T227 -315Q253 -315 270 -302T297 -272T313 -236T319 -206Q313 -204 298 -202T270 -200ZM425 1042Q464 1042 516 1039T621 1032T723 1025T803 1022Q817 1022 836 1023T873 1025T906 1028T927 1032V892Q920 889 904 887T871 885T834 884T803 884Q774 884 726 888T625 896T521 905T437 909Q378 909 345 895T297 861T278 817T275 775Q292 780 317 784T372 792T433 798T494 801Q594 801 665 783T783 726T852 626T874 481V240Q874 183 857 136T804 56T712 4T580 -14Q500 -14 444 2T354 49T304 122T289 216V224Q284 223 277 223Q271 223 266 223Q229 223 197 236T143 272T107 326T94 395Q94 432 107 463T143 518T197 555T266 568Q303 568 334 555T389 518T426 463T439 395V244Q439 208 449 183T479 145T524 125T580 119Q612 119 638 125T684 146T713 187T724 254V479Q724 531 711 567T670 625T597 658T487 668Q433 668 381 664T284 654T200 642T134 629V748Q134 811 146 865T190 958T279 1020T425 1042ZM267 473Q251 473 236 467T211 450T195 426T189 396Q189 364 212 341T267 318Q283 318 297 324T321 340T338 365T344 396Q344 428 321 450T267 473ZM768 -92Q747 -92 732 -107T717 -143Q717 -164 732 -179T768 -194Q790 -194 804 -179T819 -143Q819 -122 804 -107T768 -92Z" horiz-adv-x="997" unicode="ฐ"/>
			<glyph d="M246 1034L395 899L524 1034Q575 1029 620 1010T700 959T755 880T776 772Q674 741 619 650T564 420V163L1006 1024H1047Q1085 1024 1119 1013T1179 981T1221 927T1237 849V0H1087V849Q1087 874 1073 881T1051 888L594 0H414V422Q414 562 467 648T626 774Q626 794 620 815T602 855T571 887T525 907L395 774L248 907Q232 896 218 883T194 854T178 822T170 787Q179 792 195 794T222 797Q259 797 290 784T345 748T381 693T394 625Q394 588 381 556T345 501T290 465T222 452Q176 452 141 467T83 509T48 574T37 655Q37 716 51 774T93 883T159 972T246 1034ZM221 702Q205 702 191 696T166 679T150 654T144 624Q144 592 166 569T221 547Q237 547 251 553T276 569T293 594T299 624Q299 656 276 679T221 702Z" horiz-adv-x="1390" unicode="ฑ"/>
			<glyph d="M884 268Q833 262 802 230T771 154Q771 116 788 100T827 84Q850 84 867 99T884 153ZM526 586Q493 586 470 563T448 509Q448 477 471 454T526 431Q558 431 580 453T603 509Q603 541 580 563T526 586ZM402 1034L565 869L727 1032Q789 1024 844 999T942 927T1009 808T1034 633V364Q1079 357 1132 342T1237 304T1337 250T1422 178V1024H1572V0H1422Q1394 46 1347 89T1245 169T1135 230T1034 264V176Q1034 131 1023 95T988 35T924 -2T827 -16Q731 -16 684 30T637 154Q637 202 657 240T711 305T790 348T884 368V623Q884 677 876 722T852 802T807 859T738 888L565 723L391 888Q354 881 327 859T283 807T258 738T250 660Q250 598 261 542T286 430T311 311T322 176V138Q391 187 437 242T501 339Q470 344 443 357T396 392T364 443T353 508Q353 545 366 576T402 631T456 668T525 681Q567 681 600 666T655 626T689 566T701 491Q701 437 682 385T632 286T561 196T478 117T395 51T322 0H172V195Q172 272 161 330T136 441T111 546T100 662Q100 754 126 820T196 930T293 1000T402 1034Z" horiz-adv-x="1738" unicode="ฒ"/>
			<glyph d="M316 234Q300 234 286 228T261 211T245 186T239 156Q239 124 261 101T316 79Q332 79 346 85T371 101T388 126T394 156Q394 188 371 211T316 234ZM560 1042Q685 1042 769 1011T904 927T976 798T998 633V178Q1034 218 1082 249T1183 304T1288 342T1386 364V1024H1536V368Q1585 364 1630 348T1709 305T1763 240T1783 154Q1783 77 1736 30T1593 -16Q1535 -16 1495 -2T1431 35T1396 95T1386 176V264Q1341 255 1285 230T1175 169T1073 89T998 0H848V623Q848 692 832 745T782 835T693 891T561 910Q490 910 438 891T351 844T296 779T271 708H509V590Q402 569 348 512T294 365V328Q299 329 305 329Q312 329 317 329Q354 329 385 316T440 280T476 225T489 157Q489 120 476 88T440 33T385 -3T317 -16Q280 -16 248 -3T193 33T157 88T144 157V375Q144 462 194 515T337 594H122V704Q136 775 168 836T254 944T384 1016T560 1042ZM1536 268V153Q1536 115 1553 99T1593 84Q1615 84 1632 100T1649 154Q1649 176 1641 195T1618 230T1582 255T1536 268Z" horiz-adv-x="1826" unicode="ณ"/>
			<glyph d="M565 1042Q793 1042 913 940T1034 633V0H884V623Q884 685 866 737T810 827T711 887T565 909Q483 909 423 888T325 832T268 753T250 662Q250 600 261 544T286 431T311 312T322 176V138Q407 194 462 246T535 339Q473 349 433 392T393 508Q393 545 406 576T442 631T496 668T565 681Q607 681 640 666T695 626T729 566T741 491Q741 436 719 384T661 286T580 196T488 118T398 52T322 0H172V195Q172 272 161 330T136 441T111 546T100 662Q100 755 133 826T227 945T374 1017T565 1042ZM566 586Q550 586 535 580T510 563T494 539T488 509Q488 477 511 454T566 431Q582 431 596 437T620 453T637 478T643 509Q643 541 620 563T566 586Z" horiz-adv-x="1177" unicode="ด"/>
			<glyph d="M402 1034L565 869L727 1032Q789 1024 844 999T942 927T1009 808T1034 633V0H884V623Q884 677 876 722T852 802T807 859T738 888L565 723L391 888Q354 881 327 859T283 807T258 738T250 662Q250 600 261 544T286 431T311 312T322 176V138Q407 194 462 246T535 339Q473 349 433 392T393 508Q393 545 406 576T442 631T496 668T565 681Q607 681 640 666T695 626T729 566T741 491Q741 436 719 384T661 286T580 196T488 118T398 52T322 0H172V195Q172 272 161 330T136 441T111 546T100 662Q100 754 126 820T196 930T293 1000T402 1034ZM566 586Q550 586 535 580T510 563T494 539T488 509Q488 477 511 454T566 431Q582 431 596 437T620 453T637 478T643 509Q643 541 620 563T566 586Z" horiz-adv-x="1177" unicode="ต"/>
			<glyph d="M573 1042Q697 1042 784 1011T927 927T1007 798T1032 633V0H882V623Q882 761 806 835T574 910Q502 910 447 891T353 844T293 779T265 708H503V590Q396 569 344 512T293 365V328Q298 329 304 329Q311 329 316 329Q353 329 384 316T439 280T475 225T488 157Q488 120 475 88T439 33T384 -3T316 -16Q279 -16 247 -3T192 33T156 88T143 157V375Q143 462 193 515T337 594H116V709Q130 780 165 841T257 946T393 1016T573 1042ZM315 234Q299 234 285 228T260 211T244 186T238 156Q238 124 260 101T315 79Q331 79 345 85T370 101T387 126T393 156Q393 188 370 211T315 234Z" horiz-adv-x="1175" unicode="ถ"/>
			<glyph d="M215 1034Q252 1034 283 1021T338 984T375 929T388 861V178L829 1024H865Q903 1024 937 1013T997 979T1039 923T1055 844V0H905V844Q905 869 892 876T870 883L412 0H238V690Q233 689 226 689Q220 689 215 689Q178 689 146 702T92 738T56 792T43 861Q43 898 56 929T92 984T146 1021T215 1034ZM216 939Q200 939 185 933T160 916T144 892T138 862Q138 830 161 807T216 784Q232 784 246 790T270 806T287 831T293 862Q293 894 270 916T216 939Z" horiz-adv-x="1208" unicode="ท"/>
			<glyph d="M401 1042Q440 1042 492 1039T597 1032T699 1025T779 1022Q793 1022 812 1023T849 1025T882 1028T903 1032V892Q896 889 880 887T847 885T810 884T779 884Q750 884 702 888T601 896T497 905T413 909Q359 909 328 890T282 845T263 788T259 735Q276 740 305 744T368 752T436 758T500 761Q615 761 695 743T825 686T898 586T921 441V274Q921 225 908 176T864 88T780 24T647 0H123V470H273V134H633Q697 134 734 173T771 284V439Q771 491 757 526T711 583T626 614T493 623Q439 623 382 619T275 609T181 597T110 584V708Q110 779 122 840T166 946T255 1016T401 1042Z" horiz-adv-x="1044" unicode="ธ"/>
			<glyph d="M216 939Q200 939 185 933T160 916T144 892T138 862Q138 830 161 807T216 784Q232 784 246 790T270 806T287 831T293 862Q293 894 270 916T216 939ZM215 1034Q252 1034 283 1021T338 984T375 929T388 861V178Q424 218 472 249T573 304T678 342T776 364V1024H926V368Q975 364 1020 348T1099 305T1153 240T1173 154Q1173 77 1126 30T983 -16Q925 -16 885 -2T821 35T786 95T776 176V264Q731 255 675 230T565 169T463 89T388 0H238V690Q233 689 226 689Q220 689 215 689Q178 689 146 702T92 738T56 792T43 861Q43 898 56 929T92 984T146 1021T215 1034ZM926 268V153Q926 115 943 99T983 84Q1005 84 1022 100T1039 154Q1039 176 1031 195T1008 230T972 255T926 268Z" horiz-adv-x="1216" unicode="น"/>
			<glyph d="M216 939Q200 939 185 933T160 916T144 892T138 862Q138 830 161 807T216 784Q232 784 246 790T270 806T287 831T293 862Q293 894 270 916T216 939ZM215 1034Q252 1034 283 1021T338 984T375 929T388 861V134H724Q788 134 825 173T862 284V1024H1012V274Q1012 225 999 176T955 88T871 24T738 0H238V690Q233 689 226 689Q220 689 215 689Q178 689 146 702T92 738T56 792T43 861Q43 898 56 929T92 984T146 1021T215 1034Z" horiz-adv-x="1165" unicode="บ"/>
			<glyph d="M216 939Q200 939 185 933T160 916T144 892T138 862Q138 830 161 807T216 784Q232 784 246 790T270 806T287 831T293 862Q293 894 270 916T216 939ZM862 1434H1012V274Q1012 225 999 176T955 88T871 24T738 0H238V690Q233 689 226 689Q220 689 215 689Q178 689 146 702T92 738T56 792T43 861Q43 898 56 929T92 984T146 1021T215 1034Q252 1034 283 1021T338 984T375 929T388 861V134H724Q788 134 825 173T862 284Z" horiz-adv-x="1165" unicode="ป"/>
			<glyph d="M328 939Q296 939 273 916T251 862Q251 846 257 831T273 806T298 790T328 784Q360 784 383 807T406 862Q406 878 400 892T383 916T358 933T328 939ZM329 1034Q366 1034 397 1021T452 984T488 929T501 861Q501 824 488 792T452 738T397 702T329 689Q324 689 317 689Q311 689 306 690V194L608 608L909 194V1024H1059V0H904L608 420L311 0H156V861Q156 898 169 929T205 984T260 1021T329 1034Z" horiz-adv-x="1225" unicode="ผ"/>
			<glyph d="M328 939Q296 939 273 916T251 862Q251 846 257 831T273 806T298 790T328 784Q360 784 383 807T406 862Q406 878 400 892T383 916T358 933T328 939ZM909 1434H1059V0H904L608 420L311 0H156V861Q156 898 169 929T205 984T260 1021T329 1034Q366 1034 397 1021T452 984T488 929T501 861Q501 824 488 792T452 738T397 702T329 689Q324 689 317 689Q311 689 306 690V194L608 608L909 194Z" horiz-adv-x="1225" unicode="ฝ"/>
			<glyph d="M212 1034Q249 1034 280 1021T335 984T372 929T385 861V200Q391 226 399 258T416 320T433 377T446 417L660 1024H778L990 417Q995 404 1003 377T1020 320T1037 257T1051 199V1024H1201V0H1008L779 662Q771 686 760 721T740 790Q729 829 718 871Q707 830 696 790Q686 756 675 720T657 661L428 0H235V690Q230 689 223 689Q217 689 212 689Q175 689 143 702T89 738T53 792T40 861Q40 898 53 929T89 984T143 1021T212 1034ZM213 939Q197 939 182 933T157 916T141 892T135 862Q135 830 158 807T213 784Q229 784 243 790T267 806T284 831T290 862Q290 894 267 916T213 939Z" horiz-adv-x="1367" unicode="พ"/>
			<glyph d="M1051 1434H1201V0H1008L779 662Q771 686 760 721T740 790Q729 829 718 871Q707 830 696 790Q686 756 675 720T657 661L428 0H235V690Q230 689 223 689Q217 689 212 689Q175 689 143 702T89 738T53 792T40 861Q40 898 53 929T89 984T143 1021T212 1034Q249 1034 280 1021T335 984T372 929T385 861V200Q391 226 399 258T416 320T433 377T446 417L660 1024H778L990 417Q995 404 1003 377T1020 320T1037 257T1051 199ZM213 939Q197 939 182 933T157 916T141 892T135 862Q135 830 158 807T213 784Q229 784 243 790T267 806T284 831T290 862Q290 894 267 916T213 939Z" horiz-adv-x="1367" unicode="ฟ"/>
			<glyph d="M644 1042Q768 1042 852 1011T987 927T1060 798T1082 633V0H932V623Q932 692 916 745T866 835T777 891T645 910Q573 910 521 891T434 844T380 779T355 708H593V590Q486 569 437 512T388 365V157Q388 120 375 88T338 33T283 -3T215 -16Q178 -16 146 -3T92 33T56 88T43 157Q43 194 56 225T92 280T146 316T215 329Q220 329 226 329Q233 329 238 328V375Q238 463 285 515T427 594H206V704Q220 775 252 836T337 944T467 1016T644 1042ZM216 234Q184 234 161 211T138 156Q138 140 144 126T160 101T185 85T216 79Q248 79 270 101T293 156Q293 172 287 186T270 211T246 228T216 234Z" horiz-adv-x="1225" unicode="ภ"/>
			<glyph d="M272 1034Q309 1034 340 1021T395 984T432 929T445 861V364Q490 357 543 342T648 304T748 249T833 178V1024H983V0H833Q805 46 758 89T656 169T545 230T445 264V176Q445 131 434 95T399 35T335 -2T238 -16Q142 -16 95 30T48 154Q48 202 68 240T122 305T201 348T295 368V690Q290 689 283 689Q277 689 272 689Q235 689 203 702T149 738T113 792T100 861Q100 898 113 929T149 984T203 1021T272 1034ZM273 939Q257 939 242 933T217 916T201 892T195 862Q195 830 218 807T273 784Q289 784 303 790T327 806T344 831T350 862Q350 894 327 916T273 939ZM295 268Q270 265 249 255T213 230T190 195T182 154Q182 116 199 100T238 84Q261 84 278 99T295 153Z" horiz-adv-x="1149" unicode="ม"/>
			<glyph d="M313 939Q281 939 258 916T236 862Q236 846 242 831T258 806T283 790T313 784Q345 784 368 807T391 862Q391 878 385 892T368 916T343 933T313 939ZM314 1034Q351 1034 382 1021T437 984T473 929T486 861Q486 824 473 792T437 738T382 702T314 689Q309 689 302 689Q296 689 291 690Q291 647 309 618T353 570T407 541T456 528V447Q435 443 407 433T353 406T309 360T291 291V134H637Q701 134 735 173T770 284V1024H920V274Q920 225 907 176T863 88T779 24T646 0H141V293Q141 340 154 373T188 430T235 466T286 487Q261 494 235 508T188 545T154 601T141 682V861Q141 898 154 929T190 984T245 1021T314 1034Z" horiz-adv-x="1073" unicode="ย"/>
			<glyph d="M324 1042Q363 1042 407 1039T496 1032T580 1025T652 1022Q666 1022 694 1023T751 1025T805 1028T836 1032V892Q829 889 804 887T750 885T693 884T652 884Q623 884 583 888T499 896T413 905T336 909Q282 909 254 891T213 848T198 794T197 743Q277 761 383 761Q475 761 541 743T651 686T714 586T734 441V157Q734 120 721 88T684 33T629 -3T561 -16Q524 -16 492 -3T438 33T402 88T389 157Q389 194 402 225T438 280T492 316T561 329Q566 329 572 329Q579 329 584 328V439Q584 491 571 527T529 585T456 618T346 628Q313 628 272 625T190 616T110 604T43 589V708Q43 779 53 840T94 946T180 1016T324 1042ZM562 234Q530 234 507 211T484 156Q484 140 490 126T506 101T531 85T562 79Q594 79 616 101T639 156Q639 172 633 186T616 211T592 228T562 234Z" horiz-adv-x="879" unicode="ร"/>
			<glyph d="M573 1042Q697 1042 784 1011T927 927T1007 798T1032 633V-410H882V623Q882 761 806 835T574 910Q502 910 447 891T353 844T293 779T265 708H503V590Q396 569 344 512T293 365V328Q298 329 304 329Q311 329 316 329Q353 329 384 316T439 280T475 225T488 157Q488 120 475 88T439 33T384 -3T316 -16Q279 -16 247 -3T192 33T156 88T143 157V375Q143 462 193 515T337 594H116V709Q130 780 165 841T257 946T393 1016T573 1042ZM315 234Q299 234 285 228T260 211T244 186T238 156Q238 124 260 101T315 79Q331 79 345 85T370 101T387 126T393 156Q393 188 370 211T315 234Z" horiz-adv-x="1175" unicode="ฤ"/>
			<glyph d="M515 1042Q626 1042 709 1011T849 926T933 797T961 633V0H810V253Q810 309 791 357T734 443T642 501T514 522Q273 522 273 341V327Q278 328 284 328T296 329Q333 329 364 316T419 280T455 225T468 157Q468 120 455 88T419 33T364 -3T296 -16Q259 -16 227 -3T172 33T136 88T123 157V349Q123 418 148 475T220 572T336 635T493 657Q608 657 688 609T806 481H810V631Q810 688 793 739T741 827T649 887T515 909Q467 909 416 898T316 866T219 816T132 747V917Q207 980 306 1011T515 1042ZM295 234Q279 234 265 228T240 211T224 186T218 156Q218 124 240 101T295 79Q311 79 325 85T350 101T367 126T373 156Q373 188 350 211T295 234Z" horiz-adv-x="1104" unicode="ล"/>
			<glyph d="M644 1042Q768 1042 852 1011T987 927T1060 798T1082 633V-410H932V623Q932 692 916 745T866 835T777 891T645 910Q573 910 521 891T434 844T380 779T355 708H593V590Q486 569 437 512T388 365V157Q388 120 375 88T338 33T283 -3T215 -16Q178 -16 146 -3T92 33T56 88T43 157Q43 194 56 225T92 280T146 316T215 329Q220 329 226 329Q233 329 238 328V375Q238 463 285 515T427 594H206V704Q220 775 252 836T337 944T467 1016T644 1042ZM216 234Q184 234 161 211T138 156Q138 140 144 126T160 101T185 85T216 79Q248 79 270 101T293 156Q293 172 287 186T270 211T246 228T216 234Z" horiz-adv-x="1225" unicode="ฦ"/>
			<glyph d="M373 1043Q587 1043 688 945T789 640V157Q789 120 775 88T739 33T684 -3T615 -16Q578 -16 546 -3T492 33T456 88T443 157Q443 194 456 225T492 280T546 316T615 329Q620 329 626 329Q633 329 638 328V638Q638 781 571 845T373 910Q327 910 276 899T178 871T89 832T20 790V960Q48 978 86 993T171 1019T268 1036T373 1043ZM616 234Q584 234 561 211T538 156Q538 140 544 126T560 101T585 85T616 79Q648 79 670 101T693 156Q693 172 687 186T670 211T646 228T616 234Z" horiz-adv-x="932" unicode="ว"/>
			<glyph d="M876 1126H1037Q1006 1011 932 923Q983 872 1008 800T1034 633V0H884V623Q884 680 867 732T812 825Q783 804 749 782T682 741H539Q555 751 576 766T622 801T672 841T719 884Q688 896 650 902T565 909Q478 909 418 886T320 827T266 748T250 662Q250 602 263 548T289 450Q312 488 340 523T403 584T482 627T580 643Q620 643 655 631T715 597T755 542T770 467Q770 430 757 398T720 344T665 308T597 295Q560 295 528 308T474 344T438 398T425 467Q425 477 427 481Q411 468 393 446T359 393T332 324T322 237V0H172V274Q171 322 159 365T135 452T111 547T100 662Q100 755 132 826T225 945T372 1017T565 1042Q714 1042 819 998Q842 1031 856 1064T876 1126ZM598 545Q582 545 567 539T542 522T526 498T520 468Q520 436 543 413T598 390Q614 390 628 396T652 412T669 437T675 468Q675 500 652 522T598 545Z" horiz-adv-x="1180" unicode="ศ"/>
			<glyph d="M215 1034Q252 1034 283 1021T338 984T375 929T388 861V134H724Q788 134 825 173T862 284V405Q817 391 771 383T678 375Q626 375 586 388T520 424T479 479T466 547Q466 582 478 612T512 664T564 698T629 711Q664 711 694 698T746 664T780 612T793 547Q793 533 789 514T774 481Q818 493 862 511V1024H1012V599Q1112 675 1178 773V605Q1149 570 1106 535T1012 471V274Q1012 225 999 176T955 88T871 24T738 0H238V690Q233 689 226 689Q220 689 215 689Q178 689 146 702T92 738T56 792T43 861Q43 898 56 929T92 984T146 1021T215 1034ZM216 939Q200 939 185 933T160 916T144 892T138 862Q138 830 161 807T216 784Q232 784 246 790T270 806T287 831T293 862Q293 894 270 916T216 939ZM630 617Q600 617 580 597T560 548Q560 518 580 498T630 478Q659 478 679 498T699 548Q699 577 679 597T630 617Z" horiz-adv-x="1209" unicode="ษ"/>
			<glyph d="M804 1126H965Q950 1069 921 1015T857 918Q909 864 935 791T961 633V0H810V253Q810 309 791 357T734 443T642 501T514 522Q273 522 273 341V327Q278 328 284 328T296 329Q333 329 364 316T419 280T455 225T468 157Q468 120 455 88T419 33T364 -3T296 -16Q259 -16 227 -3T172 33T136 88T123 157V349Q123 418 148 475T220 572T336 635T493 657Q608 657 688 609T806 481H810V631Q810 688 793 738T741 827Q712 805 678 782T610 741H467Q483 751 505 767T552 802T602 843T650 887Q621 898 587 903T515 909Q467 909 416 898T316 866T219 816T132 747V917Q207 980 306 1011T515 1042Q649 1042 746 996Q768 1029 783 1063T804 1126ZM295 234Q279 234 265 228T240 211T224 186T218 156Q218 124 240 101T295 79Q311 79 325 85T350 101T367 126T373 156Q373 188 350 211T295 234Z" horiz-adv-x="1104" unicode="ส"/>
			<glyph d="M215 1034Q252 1034 283 1021T338 984T375 929T388 861V312Q421 360 466 412T560 516T661 617T758 706Q741 719 721 735T683 773T654 820T643 879Q643 915 656 943T695 992T754 1023T828 1034Q919 1034 972 995T1025 889Q1025 862 1015 837T990 791T959 752T930 721Q1002 671 1028 615T1054 493V0H904V491Q904 523 897 548T881 591T861 622T842 641Q812 613 767 569T671 471T570 357T479 239T413 126T388 28V0H238V691Q233 690 226 689T215 689Q178 689 146 702T92 738T56 792T43 861Q43 898 56 929T92 984T146 1021T215 1034ZM216 939Q200 939 185 933T160 916T144 892T138 862Q138 830 161 807T216 784Q232 784 246 790T270 806T287 831T293 862Q293 894 270 916T216 939ZM829 934Q802 934 784 918T766 876Q766 847 787 823T841 781Q860 798 877 821T894 874Q894 900 878 917T829 934Z" horiz-adv-x="1207" unicode="ห"/>
			<glyph d="M1371 1329V1151Q1336 1105 1294 1068T1201 1010V0H1008L779 662Q771 685 760 719T741 786T725 843T718 870Q717 867 710 843T694 786T675 718T657 661L428 0H235V690Q230 689 223 689Q217 689 212 689Q175 689 143 702T89 738T53 792T40 861Q40 898 53 929T89 984T143 1021T212 1034Q249 1034 280 1021T335 984T372 929T385 861V200Q391 226 399 258T416 320T433 377T446 417L660 1024H778L990 417Q995 404 1003 377T1020 320T1037 257T1051 199V940Q1046 939 1039 939Q1033 939 1028 939Q991 939 959 952T905 988T869 1042T856 1111Q856 1148 869 1179T905 1234T959 1271T1028 1284Q1065 1284 1096 1271T1151 1234T1188 1179T1201 1111Q1224 1126 1247 1149T1292 1202T1334 1263T1371 1329ZM213 939Q197 939 182 933T157 916T141 892T135 862Q135 830 158 807T213 784Q229 784 243 790T267 806T284 831T290 862Q290 894 267 916T213 939ZM1029 1189Q1013 1189 998 1183T973 1166T957 1142T951 1112Q951 1080 974 1057T1029 1034Q1045 1034 1059 1040T1083 1056T1100 1081T1106 1112Q1106 1144 1083 1166T1029 1189Z" horiz-adv-x="1371" unicode="ฬ"/>
			<glyph d="M493 1042Q604 1042 687 1011T827 926T911 797T939 633V295Q939 228 915 171T843 73T719 9T541 -14Q435 -14 359 9T236 73T165 172T143 298V468Q143 505 156 536T192 591T247 628T316 641Q353 641 384 628T439 591T475 536T488 468Q488 431 475 399T439 345T384 309T316 296Q311 296 304 296Q298 296 293 297V291Q293 203 355 161T541 119Q668 119 728 166T788 302V631Q788 688 771 739T719 827T627 887T493 909Q445 909 394 898T294 866T197 816T110 747V917Q185 980 284 1011T493 1042ZM315 546Q283 546 260 523T238 469Q238 453 244 438T260 413T285 397T315 391Q347 391 370 414T393 469Q393 485 387 499T370 523T345 540T315 546Z" horiz-adv-x="1082" unicode="อ"/>
			<glyph d="M482 927Q421 927 381 920T319 903T288 881T280 857Q280 845 288 833T315 811T367 796T447 790Q485 790 526 793T608 803T686 817T753 836Q738 858 711 875T648 903T571 921T482 927ZM482 1042Q627 1042 726 1004T877 897Q916 922 955 956T1030 1028V869Q1002 843 979 825T926 789Q934 763 936 730T939 661V295Q939 228 915 171T843 74T719 9T541 -14Q435 -14 359 9T236 74T165 173T143 298V448Q143 485 156 516T192 571T247 608T316 621Q353 621 384 608T439 571T475 516T488 448Q488 411 475 379T439 325T384 289T316 276Q311 276 304 276Q298 276 293 277Q295 204 353 161T541 119Q668 119 728 165T788 299V659Q788 679 786 696T782 725Q716 701 628 685T444 670Q364 670 304 684T205 722T145 781T126 857Q126 897 147 931T212 989T323 1028T482 1042ZM315 526Q283 526 260 503T238 449Q238 433 244 418T260 393T285 377T315 371Q347 371 370 394T393 449Q393 465 387 479T370 503T345 520T315 526Z" horiz-adv-x="1101" unicode="ฮ"/>
			<glyph d="M717 1024H869V0H719V803H715Q684 748 641 696T545 603T428 539T292 515Q185 515 124 572T63 732Q63 788 82 829T131 896T200 934T278 947Q332 947 374 930V789Q354 798 329 805T278 812Q243 812 217 791T192 732Q192 692 219 666T305 640Q383 640 449 671T568 755T658 877T717 1024Z" horiz-adv-x="1035" unicode="ฯ"/>
			<glyph d="M662 468V300Q634 266 593 231T500 169T385 125T250 108Q198 108 158 121T92 157T51 212T38 280Q38 315 50 345T84 397T136 431T201 444Q236 444 266 431T318 397T352 345T365 280Q365 266 361 247T346 214Q385 223 430 246T519 304T600 380T662 468ZM202 350Q172 350 152 330T132 281Q132 251 152 231T202 211Q231 211 251 231T271 281Q271 310 251 330T202 350ZM662 997V829Q634 795 593 760T500 698T385 654T250 637Q198 637 158 650T92 686T51 741T38 809Q38 844 50 874T84 926T136 960T201 973Q236 973 266 960T318 926T352 874T365 809Q365 795 361 776T346 743Q385 752 430 775T519 833T600 909T662 997ZM202 879Q172 879 152 859T132 810Q132 780 152 760T202 740Q231 740 251 760T271 810Q271 839 251 859T202 879Z" horiz-adv-x="700" unicode="ะ"/>
			<glyph d="M-20 1486V1318Q-48 1284 -89 1249T-182 1187T-297 1143T-432 1126Q-484 1126 -523 1139T-590 1175T-630 1230T-644 1298Q-644 1333 -632 1363T-598 1415T-546 1449T-481 1462Q-446 1462 -416 1449T-364 1415T-329 1363T-317 1298Q-317 1284 -321 1265T-336 1232Q-297 1241 -251 1264T-162 1322T-81 1398T-20 1486ZM-480 1368Q-510 1368 -530 1348T-550 1299Q-550 1269 -530 1249T-480 1229Q-451 1229 -431 1249T-411 1299Q-411 1328 -431 1348T-480 1368Z" unicode="ั"/>
			<glyph d="M373 1043Q587 1043 688 945T789 640V0H638V638Q638 781 571 845T373 910Q327 910 276 899T178 871T89 832T20 790V960Q48 978 86 993T171 1019T268 1036T373 1043Z" horiz-adv-x="932" unicode="า"/>
			<glyph d="M373 1043Q587 1043 688 945T789 640V0H638V638Q638 781 571 845T373 910Q327 910 276 899T178 871T89 832T20 790V960Q48 978 86 993T171 1019T268 1036T373 1043ZM-229 1337Q-258 1337 -278 1317T-299 1268Q-299 1239 -278 1218T-229 1198Q-200 1198 -180 1218T-160 1268Q-160 1297 -180 1317T-229 1337ZM-229 1427Q-196 1427 -167 1414T-116 1380T-82 1330T-70 1268Q-70 1235 -82 1206T-116 1156T-167 1122T-229 1110Q-262 1110 -291 1122T-341 1156T-374 1206T-387 1268Q-387 1301 -374 1330T-341 1380T-291 1414T-229 1427Z" horiz-adv-x="932" unicode="ำ"/>
			<glyph d="M-614 1438Q-544 1438 -478 1416T-358 1351T-262 1247T-202 1106V1097Q-307 1117 -403 1130T-592 1152T-780 1163T-975 1166Q-946 1297 -854 1367T-614 1438ZM-619 1360Q-713 1360 -773 1327T-857 1235Q-561 1235 -319 1192Q-337 1225 -366 1255T-433 1309T-517 1346T-619 1360Z" unicode="ิ"/>
			<glyph d="M-282 1501H-202V1097Q-307 1117 -403 1130T-592 1152T-780 1163T-975 1166Q-946 1297 -854 1367T-614 1438Q-517 1438 -430 1396T-282 1275ZM-619 1360Q-713 1360 -773 1327T-857 1235Q-561 1235 -319 1192Q-337 1225 -366 1255T-433 1309T-517 1346T-619 1360Z" unicode="ี"/>
			<glyph d="M-278 1509Q-248 1509 -222 1498T-176 1467T-145 1422T-134 1366Q-134 1313 -167 1275T-250 1228Q-218 1172 -202 1106V1097Q-307 1117 -403 1130T-592 1152T-780 1163T-975 1166Q-946 1297 -854 1367T-614 1438Q-562 1438 -512 1425T-418 1390Q-414 1416 -401 1437T-369 1475T-327 1500T-278 1509ZM-619 1360Q-713 1360 -773 1327T-857 1235Q-561 1235 -319 1192Q-337 1225 -366 1255T-433 1309T-517 1346T-619 1360ZM-278 1430Q-304 1430 -322 1411T-341 1366Q-341 1340 -322 1321T-278 1303Q-252 1303 -233 1321T-214 1366Q-214 1392 -233 1411T-278 1430Z" unicode="ึ"/>
			<glyph d="M-436 1501H-356V1349Q-315 1317 -282 1275V1501H-202V1097Q-307 1117 -403 1130T-592 1152T-780 1163T-975 1166Q-946 1297 -854 1367T-614 1438Q-567 1438 -522 1428T-436 1399ZM-619 1360Q-713 1360 -773 1327T-857 1235Q-561 1235 -319 1192Q-337 1225 -366 1255T-433 1309T-517 1346T-619 1360Z" unicode="ื"/>
			<glyph d="M-283 -108Q-224 -108 -192 -141T-160 -225V-481H-240V-323Q-245 -326 -259 -330T-291 -334Q-315 -334 -335 -325T-371 -301T-395 -265T-404 -220Q-404 -198 -396 -178T-372 -142T-334 -117T-283 -108ZM-291 -169Q-312 -169 -327 -184T-342 -220Q-342 -241 -327 -256T-291 -271Q-269 -271 -254 -256T-240 -220Q-240 -199 -254 -184T-291 -169Z" unicode="ุ"/>
			<glyph d="M-607 -169Q-628 -169 -643 -184T-658 -220Q-658 -241 -643 -256T-607 -271Q-585 -271 -570 -256T-556 -220Q-556 -199 -570 -184T-607 -169ZM-599 -108Q-540 -108 -508 -141T-476 -225V-403H-421Q-372 -403 -342 -386T-296 -334T-275 -247T-270 -125H-155Q-155 -171 -156 -215T-165 -299T-189 -372T-235 -429T-310 -467T-421 -481H-556V-323Q-561 -326 -575 -330T-607 -334Q-631 -334 -651 -325T-687 -301T-711 -265T-720 -220Q-720 -198 -712 -178T-688 -142T-650 -117T-599 -108Z" unicode="ู"/>
			<glyph d="M-249 -125Q-230 -125 -213 -132T-183 -153T-164 -183T-157 -219Q-157 -258 -183 -284T-249 -311Q-289 -311 -315 -284T-341 -219Q-341 -200 -334 -183T-315 -153T-286 -132T-249 -125Z" unicode="ฺ"/>
			<glyph d="M513 1599H637V1433Q793 1424 891 1343Q1000 1252 1000 1106Q1000 984 934 894T752 766V762Q896 746 984 652Q1071 561 1071 412Q1071 228 939 114Q818 9 637 0V-158H513V0H188V1434H513ZM637 667V146Q763 158 831 229T900 414Q900 637 637 667ZM351 672V144H513V672ZM351 1290V815H513V1290ZM637 1284V827Q728 850 778 913T829 1073Q829 1161 781 1214T637 1284Z" horiz-adv-x="1194" unicode="฿"/>
			<glyph d="M328 241Q312 241 298 235T273 218T257 193T251 163Q251 131 273 108T328 86Q344 86 358 92T383 108T400 133T406 163Q406 195 383 218T328 241ZM156 1024H306V334Q311 335 317 335T329 336Q366 336 397 323T452 287T488 232T501 164Q501 127 488 95T452 40T397 4T329 -9Q292 -9 260 4T205 40T169 95T156 164Z" horiz-adv-x="544" unicode="เ"/>
			<glyph d="M328 241Q312 241 298 235T273 218T257 193T251 163Q251 131 273 108T328 86Q344 86 358 92T383 108T400 133T406 163Q406 195 383 218T328 241ZM156 1024H306V334Q311 335 317 335T329 336Q366 336 397 323T452 287T488 232T501 164Q501 127 488 95T452 40T397 4T329 -9Q292 -9 260 4T205 40T169 95T156 164ZM773 241Q757 241 743 235T718 218T702 193T696 163Q696 131 718 108T773 86Q789 86 803 92T828 108T845 133T851 163Q851 195 828 218T773 241ZM601 1024H751V334Q756 335 762 335T774 336Q811 336 842 323T897 287T933 232T946 164Q946 127 933 95T897 40T842 4T774 -9Q737 -9 705 4T650 40T614 95T601 164Z" horiz-adv-x="989" unicode="แ"/>
			<glyph d="M622 241Q606 241 592 235T567 218T551 193T545 163Q545 131 567 108T622 86Q638 86 652 92T677 108T694 133T700 163Q700 195 677 218T622 241ZM363 1892Q402 1892 442 1889T522 1882T596 1875T660 1872Q703 1872 736 1875T783 1882V1746Q769 1741 736 1737T662 1734Q637 1734 600 1738T522 1746T440 1755T368 1759Q316 1759 281 1748T224 1716T193 1663T184 1591Q210 1600 249 1609T327 1618Q397 1618 448 1601T533 1548T583 1454T600 1312V334Q605 335 611 335T623 336Q660 336 691 323T746 287T782 232T795 164Q795 127 782 95T746 40T691 4T623 -9Q586 -9 554 4T499 40T463 95T450 164V1312Q450 1407 412 1445T293 1484Q266 1484 234 1479T169 1467T104 1450T43 1431V1556Q43 1648 64 1712T127 1816T227 1874T363 1892Z" horiz-adv-x="838" unicode="โ"/>
			<glyph d="M585 241Q569 241 555 235T530 218T514 193T508 163Q508 131 530 108T585 86Q601 86 615 92T640 108T657 133T663 163Q663 195 640 218T585 241ZM399 1892Q490 1892 556 1872T666 1816T735 1730T770 1622Q671 1591 617 1500T563 1270V334Q568 335 574 335T586 336Q623 336 654 323T709 287T745 232T758 164Q758 127 745 95T709 40T654 4T586 -9Q549 -9 517 4T462 40T426 95T413 164V1272Q413 1412 465 1498T620 1624Q617 1647 604 1672T567 1719T499 1753T394 1767Q323 1767 267 1746T187 1688Q192 1690 202 1691T221 1692Q258 1692 289 1679T344 1643T380 1588T393 1520Q393 1483 380 1451T344 1396T289 1360T221 1347Q175 1347 140 1364T82 1410T47 1481T36 1570Q36 1624 54 1681T115 1785T227 1862T399 1892ZM220 1597Q204 1597 190 1591T165 1574T149 1549T143 1519Q143 1487 165 1464T220 1442Q236 1442 250 1448T275 1464T292 1489T298 1519Q298 1551 275 1574T220 1597Z" horiz-adv-x="801" unicode="ใ"/>
			<glyph d="M622 241Q606 241 592 235T567 218T551 193T545 163Q545 131 567 108T622 86Q638 86 652 92T677 108T694 133T700 163Q700 195 677 218T622 241ZM-36 1892H84Q97 1872 105 1838T119 1772L153 1537Q158 1500 162 1478T171 1444T181 1428T193 1425Q198 1425 203 1429T213 1445T222 1479T232 1537L250 1675Q257 1727 270 1767T305 1835T360 1877T437 1892Q525 1892 562 1835T600 1675V335Q605 336 611 336Q618 336 623 336Q660 336 691 323T746 287T782 232T795 164Q795 127 782 95T746 40T691 4T623 -9Q586 -9 554 4T499 40T463 95T450 164V1649Q450 1712 444 1748T413 1784Q389 1784 379 1748T362 1649L346 1530Q340 1482 329 1442T301 1375T257 1332T193 1317Q154 1317 127 1332T83 1375T55 1442T39 1530L7 1774Q2 1811 -10 1841T-36 1892Z" horiz-adv-x="817" unicode="ไ"/>
			<glyph d="M373 1043Q587 1043 688 945T789 640V-410H638V638Q638 781 571 845T373 910Q327 910 276 899T178 871T89 832T20 790V960Q48 978 86 993T171 1019T268 1036T373 1043Z" horiz-adv-x="932" unicode="ๅ"/>
			<glyph d="M246 1034L385 869L523 1034Q570 1029 612 1010T686 959T737 880T756 772V-410H605V768Q605 788 600 810T584 852T557 886T517 903L385 744L248 903Q232 892 218 872T194 827T178 777T170 727Q179 732 195 734T222 737Q259 737 290 724T345 688T381 633T394 565Q394 528 381 496T345 441T290 405T222 392Q176 392 141 409T83 455T48 526T37 615Q37 684 51 748T93 868T159 966T246 1034ZM221 642Q205 642 191 636T166 619T150 594T144 564Q144 532 166 509T221 487Q237 487 251 493T276 509T293 534T299 564Q299 596 276 619T221 642Z" horiz-adv-x="909" unicode="ๆ"/>
			<glyph d="M-137 1600V1507Q-175 1465 -230 1442T-346 1419H-651Q-680 1419 -705 1412T-748 1393T-778 1360T-789 1313Q-789 1282 -769 1256T-715 1214Q-684 1259 -647 1286T-556 1313Q-513 1313 -478 1292T-414 1245T-358 1199T-302 1178Q-285 1178 -276 1182T-259 1193Q-297 1194 -321 1220T-346 1283Q-346 1318 -322 1345T-252 1372Q-205 1372 -179 1342T-153 1268Q-153 1234 -165 1203T-200 1150T-256 1113T-333 1099Q-378 1099 -411 1119T-470 1163T-520 1208T-568 1228Q-589 1228 -604 1218T-633 1190T-659 1149T-687 1099Q-725 1116 -758 1137T-816 1185T-856 1244T-871 1313Q-871 1366 -851 1401T-797 1457T-719 1488T-626 1497H-388Q-300 1497 -237 1530T-137 1600ZM-254 1323Q-271 1323 -282 1311T-293 1285Q-293 1265 -282 1253T-254 1241Q-237 1241 -226 1253T-215 1282Q-215 1299 -226 1311T-254 1323Z" unicode="็"/>
			<glyph d="M-280 1440H-180V1110H-280Z" unicode="่"/>
			<glyph d="M-636 1521Q-599 1521 -567 1509T-513 1476T-478 1421T-465 1347Q-465 1301 -484 1262T-543 1196Q-437 1196 -374 1225T-279 1302T-237 1406T-226 1521H-111Q-114 1476 -121 1428T-144 1335T-190 1248T-268 1177T-387 1128T-557 1110H-653V1198Q-607 1212 -576 1248T-546 1337Q-551 1327 -559 1315T-581 1294T-613 1278T-656 1272Q-683 1272 -705 1281T-744 1308T-770 1348T-780 1398Q-780 1422 -770 1444T-743 1483T-698 1511T-636 1521ZM-646 1453Q-669 1453 -685 1436T-702 1397Q-702 1374 -685 1357T-646 1341Q-623 1341 -606 1357T-590 1397Q-590 1420 -606 1436T-646 1453Z" unicode="้"/>
			<glyph d="M-668 1509L-549 1407L-434 1509Q-365 1477 -328 1426T-291 1303Q-291 1276 -293 1249T-298 1213Q-264 1213 -241 1235T-204 1297T-183 1391T-175 1509H-60Q-64 1468 -68 1422T-84 1333T-116 1248T-174 1177T-266 1128T-403 1110Q-389 1156 -383 1200T-377 1276Q-377 1327 -389 1358T-437 1409L-549 1310L-664 1409Q-699 1390 -715 1360T-732 1296Q-732 1271 -729 1254T-717 1216Q-716 1254 -689 1278T-627 1303Q-592 1303 -565 1280T-538 1209Q-538 1161 -567 1135T-642 1110Q-677 1110 -708 1123T-762 1160T-798 1218T-811 1296Q-811 1368 -774 1422T-668 1509ZM-628 1252Q-645 1252 -657 1240T-669 1211Q-669 1194 -657 1182T-628 1170Q-611 1170 -599 1182T-587 1211Q-587 1228 -599 1240T-628 1252Z" unicode="๊"/>
			<glyph d="M-270 1440H-190V1313H-63V1237H-190V1110H-270V1237H-397V1313H-270Z" unicode="๋"/>
			<glyph d="M-96 1565H37Q29 1520 16 1479T-19 1408T-76 1360T-161 1342Q-195 1342 -233 1344T-307 1348T-370 1353T-410 1355Q-403 1349 -395 1339T-379 1315T-367 1284T-362 1249Q-362 1179 -405 1137T-528 1096Q-606 1096 -651 1137T-697 1250Q-697 1287 -684 1319T-644 1374T-579 1411T-490 1425Q-456 1425 -428 1424T-373 1422T-316 1420T-248 1419Q-179 1419 -143 1457T-96 1565ZM-528 1326Q-563 1326 -584 1305T-606 1251Q-606 1216 -584 1196T-528 1176Q-496 1176 -474 1196T-453 1251Q-453 1285 -474 1305T-528 1326Z" unicode="์"/>
			<glyph d="M-229 1337Q-258 1337 -278 1317T-299 1268Q-299 1239 -278 1218T-229 1198Q-200 1198 -180 1218T-160 1268Q-160 1297 -180 1317T-229 1337ZM-229 1427Q-196 1427 -167 1414T-116 1380T-82 1330T-70 1268Q-70 1235 -82 1206T-116 1156T-167 1122T-229 1110Q-262 1110 -291 1122T-341 1156T-374 1206T-387 1268Q-387 1301 -374 1330T-341 1380T-291 1414T-229 1427Z" unicode="ํ"/>
			<glyph d="M-179 1567Q-160 1567 -135 1564T-95 1556V1458Q-101 1460 -112 1462T-135 1465T-159 1467T-179 1468Q-244 1468 -270 1455T-297 1423Q-297 1407 -286 1397T-259 1381T-219 1374T-174 1372V1296Q-197 1296 -229 1294T-291 1285T-342 1266T-363 1234Q-363 1213 -342 1200T-285 1187Q-254 1187 -223 1193T-166 1208V1105Q-188 1097 -221 1093T-285 1089Q-323 1089 -356 1097T-413 1122T-451 1161T-465 1212Q-465 1262 -426 1293T-316 1339Q-329 1343 -342 1351T-367 1372T-385 1400T-392 1434Q-392 1472 -373 1497T-323 1538T-254 1560T-179 1567Z" unicode="๎"/>
			<glyph d="M555 913Q650 913 734 877T880 778T979 632T1016 453Q1016 357 979 272T880 125T734 26T555 -10Q459 -10 374 26T227 125T128 272T92 453Q92 548 128 632T227 778T374 877T555 913ZM555 793Q483 793 420 766T312 694T239 586T213 453Q213 382 239 319T312 210T420 137T555 110Q626 110 688 137T796 210T868 319T895 453Q895 524 868 586T796 694T688 766T555 793ZM555 602Q586 602 613 590T660 558T693 511T705 453Q705 422 693 394T660 345T613 313T555 301Q524 301 496 313T447 345T415 394T403 453Q403 484 415 511T447 558T496 590T555 602Z" horiz-adv-x="1108" unicode="๏"/>
			<glyph d="M573 706Q499 706 437 687T330 632T259 541T234 412Q234 338 259 282T330 190T437 135T573 117Q648 117 711 135T819 190T890 282T915 412Q915 486 890 541T819 632T711 687T573 706ZM573 834Q678 834 768 805T924 723T1029 590T1067 412Q1067 313 1029 234T924 102T768 19T573 -10Q470 -10 380 19T224 102T120 234T82 412Q82 512 120 590T224 723T380 805T573 834Z" horiz-adv-x="1149" unicode="๐"/>
			<glyph d="M628 834Q750 834 850 801T1021 708T1131 566T1170 385Q1170 299 1146 232T1080 116T975 36T838 -10V119Q928 142 973 210T1018 385Q1018 461 987 520T904 621T780 684T628 706Q545 706 474 685T350 623T268 522T238 383Q238 315 255 265T301 184T364 136T435 121Q494 121 532 141T593 191Q557 194 527 207T477 244T444 297T433 364Q433 401 446 432T482 487T536 524T605 537Q642 537 674 524T731 488T769 430T783 352Q783 275 759 208T690 93T579 17T430 -10Q360 -10 297 16T187 92T113 215T86 383Q86 481 123 563T231 706T402 800T628 834ZM606 442Q590 442 575 436T550 419T534 395T528 365Q528 333 551 310T606 287Q622 287 636 293T660 309T677 334T683 365Q683 397 660 419T606 442Z" horiz-adv-x="1256" unicode="๑"/>
			<glyph d="M153 1245H301V283Q301 210 342 171T456 133H876Q948 133 988 171T1029 283V570Q1029 599 1024 624T1010 669T985 699T946 710Q910 710 884 679T858 596H732Q732 649 707 679T646 710Q620 710 605 696T582 659T571 607T569 548Q569 524 572 497T581 447T598 404T623 378Q621 382 620 389T620 404Q620 432 630 455T657 496T697 523T749 533Q777 533 800 523T841 496T869 455T879 404Q879 333 834 299T717 265Q658 265 609 282T526 335T472 424T453 548Q453 605 461 657T491 749T550 812T646 836Q679 836 704 826T747 800T777 763T795 720H797Q802 743 815 764T848 801T897 826T960 836Q1008 836 1048 819T1118 769T1163 684T1179 565V274Q1179 225 1165 176T1118 88T1030 24T895 0H437Q356 0 301 24T214 88T167 176T153 274ZM750 461Q726 461 708 444T691 403Q691 378 708 361T750 345Q774 345 791 361T808 403Q808 428 791 444T750 461Z" horiz-adv-x="1322" unicode="๒"/>
			<glyph d="M388 835Q441 835 480 817T545 773T588 715T612 655Q620 684 636 715T679 773T745 817T836 835Q905 835 959 804T1052 718T1111 587T1131 422Q1131 336 1110 263T1049 135T954 42T828 -10V120Q905 144 942 220T979 422Q979 481 966 533T930 624T877 685T812 708Q755 708 719 649T683 462H536Q536 591 498 649T403 708Q367 708 336 685T284 624T250 532T238 420Q238 373 242 336T252 272T266 222T282 184Q285 220 298 248T334 297T387 329T454 340Q491 340 523 327T578 291T614 237T628 168Q628 131 615 98T579 42T520 4T442 -10Q358 -10 292 22T180 111T110 247T86 420Q86 510 107 586T168 717T263 804T388 835ZM455 246Q423 245 400 222T377 167Q377 135 400 112T455 90Q487 90 509 112T532 167Q532 183 526 197T509 222T485 239T455 246Z" horiz-adv-x="1217" unicode="๓"/>
			<glyph d="M923 1163H1071Q1079 1149 1084 1127T1090 1077Q1090 1012 1066 962T996 874T881 808T720 759Q661 745 603 729T493 692T396 643T319 575T268 483T250 362Q250 302 268 257T318 183T390 139T476 125Q497 125 524 128T580 136T637 145T689 153Q672 162 653 180T617 225T590 285T579 356Q579 409 597 455T650 535T737 588T856 607Q948 607 1002 560T1057 429Q1057 392 1043 360T1007 305T952 270T883 257Q847 257 816 268T763 299T727 348T711 413Q701 402 696 383T691 345Q691 303 709 270T759 215T833 178T922 158Q980 152 1029 141T1111 116V-18Q1094 -10 1064 0T999 17T923 30T847 35Q808 35 758 29T658 15T560 2T476 -4Q383 -4 312 22T195 97T124 212T100 360Q100 479 140 564T255 709T433 808T664 876Q810 908 875 956T940 1075Q940 1097 935 1121T923 1163ZM884 507Q852 507 829 484T806 430Q806 398 829 375T884 351Q900 351 914 357T938 374T955 399T961 430Q961 462 938 484T884 507Z" horiz-adv-x="1221" unicode="๔"/>
			<glyph d="M923 1163H1071Q1079 1149 1084 1127T1090 1077Q1090 1012 1066 962T996 874T881 808T720 759Q661 745 603 729T493 692T396 643T319 575T268 483T250 362Q250 302 268 257T318 183T390 139T476 125Q497 125 524 128T580 136T637 145T689 153Q672 162 653 180T617 225T590 285T579 356Q579 409 597 455T650 535T737 588T856 607Q948 607 1002 560T1057 429Q1057 392 1043 360T1007 305T952 270T883 257Q847 257 816 268T763 299T727 348T711 413Q701 402 696 383T691 345Q691 303 709 270T759 215T833 178T922 158Q980 152 1029 141T1111 116V-18Q1094 -10 1064 0T999 17T923 30T847 35Q808 35 758 29T658 15T560 2T476 -4Q383 -4 312 22T195 97T124 212T100 360Q100 445 121 512T181 632T276 725T403 796Q355 842 355 921Q355 958 368 990T403 1045T458 1081T527 1095Q611 1095 658 1040T705 894Q705 888 704 885Q829 917 884 963T940 1075Q940 1097 935 1121T923 1163ZM884 507Q852 507 829 484T806 430Q806 398 829 375T884 351Q900 351 914 357T938 374T955 399T961 430Q961 462 938 484T884 507ZM527 1000Q495 1000 472 977T449 922Q449 890 472 867T527 844Q559 844 582 867T605 922Q605 954 582 977T527 1000Z" horiz-adv-x="1221" unicode="๕"/>
			<glyph d="M10 1143H194Q216 1108 235 1064T269 972T298 874T321 778Q352 792 406 803T525 815Q620 815 695 788T823 711T904 586T932 416Q932 322 902 244T818 109T685 21T507 -10Q427 -10 357 12T235 77T154 178T124 309Q124 357 138 393T177 454T237 491T314 504Q352 504 383 490T437 454T473 399T486 330Q486 293 472 261T436 206T381 171T312 158Q326 147 345 139T387 125T434 117T483 115Q548 115 602 134T696 192T758 286T780 416Q780 490 759 542T701 627T616 675T514 690Q482 690 447 685T379 673T315 655T258 632Q247 671 230 717T193 813T149 910T102 1003T55 1083T10 1143ZM314 409Q282 409 259 386T236 331Q236 299 259 276T314 253Q346 253 369 276T392 331Q392 363 369 386T314 409Z" horiz-adv-x="1002" unicode="๖"/>
			<glyph d="M1220 1245H1368V274Q1368 225 1351 176T1298 88T1205 24T1067 0H827Q872 97 888 199T905 422Q905 481 898 533T876 625T837 687T778 710Q721 710 683 648T646 457H504Q504 587 470 648T379 710Q343 710 317 687T275 625T251 533T244 420Q244 373 248 336T258 272T272 222T288 184Q291 220 304 248T340 297T393 329T460 340Q497 340 529 327T584 291T620 237T634 168Q634 131 621 98T585 42T526 4T448 -10Q364 -10 298 22T186 111T116 247T92 420Q92 507 106 583T153 715T239 804T369 836Q417 836 452 817T513 773T554 717T578 665Q585 688 600 717T640 773T700 817T782 836Q856 836 908 804T994 716T1042 585T1057 422Q1057 376 1052 331T1041 248T1027 180T1013 134H1064Q1140 134 1180 172T1220 283ZM461 246Q429 245 406 222T383 167Q383 135 406 112T461 90Q493 90 515 112T538 167Q538 183 532 197T515 222T491 239T461 246Z" horiz-adv-x="1493" unicode="๗"/>
			<glyph d="M923 1163H1071Q1079 1149 1084 1127T1090 1077Q1090 1012 1066 962T996 874T881 808T720 759Q661 745 603 729T493 692T396 643T319 575T268 483T250 362Q250 274 288 223T391 154Q398 201 411 240T447 309T501 354T579 371Q616 371 650 352T717 306T779 247T836 187T889 141T939 123Q954 123 969 128T998 146T1025 179T1044 230Q1033 227 1023 226T1003 225Q966 225 934 238T879 275T843 330T830 398Q830 435 843 467T878 522T933 558T1002 572Q1039 572 1071 559T1126 521T1163 462T1177 384Q1177 297 1160 224T1111 100T1036 20T940 -8Q897 -8 859 10T789 55T728 115T673 174T624 220T579 238Q555 238 540 216T516 159T501 81T492 -5Q399 -5 326 22T203 97T126 212T100 360Q100 479 140 564T255 709T433 808T664 876Q810 908 875 956T940 1075Q940 1097 935 1121T923 1163ZM1003 476Q987 476 972 470T947 453T930 429T924 399Q924 367 947 344T1003 321Q1035 321 1057 344T1080 399Q1080 431 1057 453T1003 476Z" horiz-adv-x="1287" unicode="๘"/>
			<glyph d="M1124 1055H1268Q1268 1008 1261 955T1241 849T1208 749T1164 665T1108 607T1042 586Q1018 586 993 598T945 628T901 668T861 708T828 739T803 751Q788 751 777 732T758 683T744 615T735 541L963 0H797L608 479Q590 526 571 567T530 640T481 690T420 709Q364 709 328 677T273 597T245 495T238 395Q238 325 251 271T282 184Q285 220 298 248T334 297T387 329T454 340Q491 340 523 327T578 291T614 237T628 168Q628 131 615 98T579 42T520 4T442 -10Q358 -10 292 19T180 101T110 229T86 393Q86 494 108 575T175 714T283 803T430 834Q475 834 512 819T578 783T629 734T664 684Q672 723 682 761T709 829T748 878T803 897Q823 897 844 885T886 854T929 814T971 774T1009 744T1042 732Q1062 732 1077 757T1103 826T1119 929T1124 1055ZM455 246Q423 245 400 222T377 167Q377 135 400 112T455 90Q487 90 509 112T532 167Q532 183 526 197T509 222T485 239T455 246Z" horiz-adv-x="1268" unicode="๙"/>
			<glyph d="M1008 1024H1158V0H1008ZM717 1024H869V0H719V803H715Q684 748 641 696T545 603T428 539T292 515Q185 515 124 572T63 732Q63 788 82 829T131 896T200 934T278 947Q332 947 374 930V789Q354 798 329 805T278 812Q243 812 217 791T192 732Q192 692 219 666T305 640Q383 640 449 671T568 755T658 877T717 1024Z" horiz-adv-x="1324" unicode="๚"/>
			<glyph d="M469 907Q523 907 580 893T682 851V690Q637 728 581 750T471 772Q401 772 355 745T283 673T246 570T236 449Q236 389 246 331T282 229T348 157T452 130Q527 130 578 175T666 296T729 470T780 675L944 356L1055 604L1188 344L1327 604Q1361 492 1410 442T1522 392Q1584 392 1616 428T1662 528H1778Q1752 403 1688 337T1524 272Q1448 272 1397 305T1314 392L1179 141L1055 389L944 141L816 387Q798 318 770 248T699 122T597 31T455 -4Q349 -4 279 35T169 138T112 284T96 451Q96 545 115 628T178 773T293 871T469 907Z" horiz-adv-x="1823" unicode="๛"/>
			<glyph d="M263 1042Q386 1042 467 914Q706 1042 875 1042Q1077 1042 1197 909Q1310 782 1310 579Q1310 426 1252 272Q1214 168 1115 -11L964 51Q1154 348 1154 579Q1154 714 1083 807Q1005 908 875 908Q718 908 522 802Q572 651 572 497Q572 347 504 188Q419 -9 287 -9Q229 -9 187 29T145 127Q145 183 185 223T281 263Q317 263 357 247Q416 331 416 495Q416 649 389 740Q320 709 269 709Q191 709 145 752T100 870Q100 940 146 991T263 1042ZM263 933Q213 933 213 879Q213 858 227 838T263 819Q302 819 350 853Q314 933 263 933ZM283 178Q231 178 231 127Q231 76 283 76Q334 76 334 127Q334 147 318 162T283 178Z" horiz-adv-x="1408" unicode="ກ"/>
			<glyph d="M661 1042Q860 1042 1003 982Q1197 900 1197 732Q1197 585 989 491Q902 453 639 388Q413 332 403 328Q253 276 253 200Q253 161 290 140Q322 122 362 122Q446 122 637 184T921 247Q1102 247 1206 62L1094 -27Q1012 114 922 114Q840 114 653 51T364 -12Q97 -12 97 200Q97 344 307 432Q384 465 648 528Q831 572 894 597Q1041 655 1041 734Q1041 836 895 880Q799 908 661 908Q448 908 338 811Q394 805 430 766T466 674Q466 618 425 578T328 538Q249 538 204 595Q161 648 161 729Q161 889 341 975Q482 1042 661 1042ZM328 725Q277 725 277 674Q277 624 328 624Q381 624 381 674Q381 725 328 725Z" horiz-adv-x="1284" unicode="ຂ"/>
			<glyph d="M637 1042Q883 1042 1041 924Q1217 793 1217 561Q1217 319 1021 -9L868 54Q1061 349 1061 555Q1061 729 931 823Q814 908 631 908Q492 908 385 853Q255 786 255 667Q255 623 271 593Q353 669 469 669Q561 669 619 631Q687 586 687 501Q687 413 616 368Q555 330 461 330Q342 330 274 373Q255 332 255 299Q255 171 365 151Q369 197 409 230T496 263Q552 263 592 223T632 127Q632 73 590 32T487 -9Q107 -9 107 297Q107 381 163 476Q98 548 98 661Q98 842 279 950Q435 1042 637 1042ZM473 549Q408 549 341 491Q391 452 461 452Q556 452 556 501Q556 549 473 549ZM494 178Q443 178 443 127Q443 76 494 76Q546 76 546 127Q546 178 494 178Z" horiz-adv-x="1315" unicode="ຄ"/>
			<glyph d="M432 1042Q699 1042 794 793Q854 638 854 316Q854 -6 770 -154Q657 -355 356 -355Q254 -355 169 -329L207 -200Q290 -221 356 -221Q578 -221 652 -50Q698 58 698 316Q698 558 665 683Q605 908 438 908Q353 908 296 875T225 792Q282 792 323 751T364 655Q364 600 322 560T225 520Q147 520 103 577Q62 629 62 710Q62 867 169 957Q270 1042 432 1042ZM225 707Q175 707 175 655Q175 605 225 605Q279 605 279 655Q279 707 225 707Z" horiz-adv-x="952" unicode="ງ"/>
			<glyph d="M641 1042Q871 1042 1011 913Q1156 780 1156 553Q1156 199 774 -33L677 59Q721 120 734 148Q765 217 765 315Q765 383 731 436Q690 496 622 496Q544 496 522 438Q578 438 619 397T660 302Q660 246 619 206T522 166Q443 166 398 225Q357 279 357 362Q357 476 432 553T622 630Q765 630 839 530Q899 449 899 325Q899 279 891 237Q1000 358 1000 559Q1000 715 899 811T641 908Q349 908 210 594L67 643Q237 1042 641 1042ZM522 353Q502 353 486 337T471 302Q471 281 486 266T522 251Q575 251 575 302Q575 353 522 353Z" horiz-adv-x="1253" unicode="ຈ"/>
			<glyph d="M577 1042Q822 1042 970 926Q1134 799 1134 563Q1134 365 975 196Q1057 117 1057 -54V-140Q1057 -215 1142 -215V-349Q901 -349 901 -137V-51Q901 46 858 94Q703 -18 487 -18Q361 -18 269 20Q142 71 142 179Q142 287 270 343Q365 385 489 385Q683 385 864 288Q977 413 977 565Q977 735 860 826Q754 908 577 908Q371 908 269 799Q326 799 366 758T407 663Q407 607 366 567T269 527Q189 527 143 581Q98 632 98 711Q98 864 266 961Q410 1042 577 1042ZM269 713Q218 713 218 663Q218 612 269 612Q321 612 321 663Q321 713 269 713ZM487 254Q425 254 373 240Q297 220 297 177Q297 144 375 126Q431 114 487 114Q621 114 761 187Q624 254 487 254Z" horiz-adv-x="1232" unicode="ຊ"/>
			<glyph d="M456 1042Q527 1042 577 1005Q632 964 632 896Q632 840 592 800T496 760Q389 760 365 860Q255 821 255 708Q255 669 274 628Q352 676 461 676Q553 676 616 633Q687 585 687 500Q687 419 618 371Q557 329 469 329Q357 329 271 408Q255 378 255 345Q255 219 395 162Q496 122 648 122Q829 122 940 208Q1061 302 1061 476Q1061 685 871 977L1021 1040Q1217 710 1217 471Q1217 237 1050 106Q899 -12 655 -12Q424 -12 283 56Q98 146 98 345Q98 447 168 524Q107 608 107 710Q107 854 208 948T456 1042ZM494 947Q443 947 443 896Q443 845 494 845Q546 845 546 896Q546 947 494 947ZM461 557Q403 557 341 510Q414 446 473 446Q501 446 526 459Q556 475 556 500Q556 557 461 557Z" horiz-adv-x="1291" unicode="ຍ"/>
			<glyph d="M652 1042Q897 1042 1047 918Q1208 784 1208 545Q1208 308 1012 -9L865 54Q1052 337 1052 545Q1052 719 937 817Q828 908 652 908Q473 908 367 819Q255 723 255 545Q255 307 374 195Q409 263 496 263Q552 263 592 223T632 127Q632 74 590 32T496 -9Q312 -9 198 180Q98 343 98 543Q98 783 255 916Q404 1042 652 1042ZM494 178Q474 178 458 162T443 127Q443 76 494 76Q546 76 546 127Q546 178 494 178Z" horiz-adv-x="1307" unicode="ດ"/>
			<glyph d="M507 1042Q592 1042 660 998T763 884Q793 953 872 999Q947 1042 1024 1042Q1221 1042 1325 896Q1417 768 1417 569Q1417 309 1221 -11L1066 52Q1260 342 1260 567Q1260 703 1209 794Q1145 908 1018 908Q956 908 904 858T830 726H697Q680 808 628 858T507 908Q381 908 312 798Q255 705 255 569Q255 469 280 371Q312 252 369 196Q403 263 487 263Q543 263 583 223T623 127Q623 74 581 32T487 -9Q306 -9 193 198Q98 371 98 567Q98 769 200 899Q310 1042 507 1042ZM485 178Q465 178 449 162T434 127Q434 76 485 76Q538 76 538 127Q538 178 485 178Z" horiz-adv-x="1515" unicode="ຕ"/>
			<glyph d="M245 1042Q379 1042 461 913Q703 1042 858 1042Q1065 1042 1180 920Q1291 800 1291 586V-355H1135V586Q1135 723 1064 808Q988 897 858 897Q718 897 518 799Q536 755 536 643Q536 578 514 461T492 281Q492 268 496 258Q521 263 543 263Q599 263 639 223T679 127Q679 68 637 29T538 -9Q435 -9 380 90Q336 169 336 281Q336 346 357 462T378 643Q378 672 371 728Q302 697 251 697Q175 697 128 745T82 870Q82 940 128 991T245 1042ZM245 924Q194 924 194 870Q194 849 209 829T245 810Q289 810 335 844Q299 924 245 924ZM541 178Q491 178 491 127Q491 76 541 76Q594 76 594 127Q594 178 541 178Z" horiz-adv-x="1409" unicode="ຖ"/>
			<glyph d="M238 1042Q304 1042 346 1001T389 893Q389 846 353 727Q293 525 293 412Q293 122 479 122Q660 122 660 386Q660 437 654 528T648 672Q648 822 730 927Q821 1042 977 1042Q1157 1042 1246 884Q1317 757 1317 565Q1317 323 1173 -12L1025 38Q1161 347 1161 565Q1161 908 975 908Q883 908 837 820Q804 754 804 656Q804 607 810 519T816 382Q816 206 740 104Q652 -12 474 -12Q294 -12 208 118Q137 227 137 414Q137 587 214 759Q162 768 131 806T100 899Q100 956 140 999T238 1042ZM238 950Q185 950 185 899Q185 848 238 848Q289 848 289 899Q289 919 273 934T238 950Z" horiz-adv-x="1416" unicode="ທ"/>
			<glyph d="M243 1042Q394 1042 464 860Q514 732 514 552Q514 418 448 239Q664 122 820 122Q951 122 1027 221Q1097 314 1097 461Q1097 597 1040 732Q1002 817 907 968L1052 1042Q1166 836 1192 772Q1253 624 1253 467Q1253 256 1140 125Q1021 -12 820 -12Q641 -12 396 121Q354 43 301 -8L188 93Q267 176 314 308Q358 433 358 553Q358 703 319 799Q277 770 234 770Q178 770 138 810T98 907Q98 961 141 1001T243 1042ZM236 957Q184 957 184 907Q184 855 236 855Q256 855 271 870T287 907Q287 927 271 942T236 957Z" horiz-adv-x="1352" unicode="ນ"/>
			<glyph d="M236 1042Q303 1042 346 1001T389 893Q389 836 354 733Q293 552 293 439Q293 279 413 195Q520 122 690 122Q867 122 975 209Q1090 303 1090 475Q1090 701 905 978L1050 1042Q1246 723 1246 475Q1246 237 1085 107Q937 -12 690 -12Q443 -12 301 90Q137 206 137 441Q137 561 218 759Q166 768 133 806T100 899Q100 953 141 997T236 1042ZM238 950Q185 950 185 899Q185 848 238 848Q289 848 289 899Q289 919 273 934T238 950Z" horiz-adv-x="1345" unicode="ບ"/>
			<glyph d="M1196 1228V1094Q1113 1094 1113 1017Q1113 922 1179 741T1246 467Q1246 230 1086 103Q938 -12 690 -12Q443 -12 301 87Q137 202 137 436Q137 578 218 759Q166 768 133 806T100 899Q100 953 141 997T236 1042Q303 1042 346 1001T389 893Q389 848 354 743Q293 558 293 435Q293 270 413 190Q515 122 690 122Q874 122 977 202Q1090 291 1090 467Q1090 552 1022 733T954 1018Q954 1228 1196 1228ZM238 950Q185 950 185 899Q185 848 238 848Q289 848 289 899Q289 919 273 934T238 950Z" horiz-adv-x="1345" unicode="ປ"/>
			<glyph d="M1241 1053L1366 1030Q1356 985 1315 881Q1417 685 1417 480Q1417 283 1304 141Q1181 -12 990 -12Q852 -12 757 80Q660 -12 525 -12Q327 -12 208 140Q98 279 98 482Q98 676 193 843Q306 1042 487 1042Q540 1042 581 1001T623 907Q623 851 583 810T487 770Q403 770 369 837Q313 782 281 670Q255 575 255 480Q255 346 321 241Q398 122 525 122Q600 122 654 165Q570 261 570 381Q570 465 620 524T753 583Q841 583 892 525Q941 470 941 381Q941 259 861 165Q904 122 990 122Q1114 122 1192 244Q1260 350 1260 482Q1260 634 1210 759Q1136 701 1066 701Q996 701 939 753T883 875Q883 948 930 995T1052 1042Q1145 1042 1221 988Q1239 1037 1241 1053ZM1057 922Q1037 922 1017 908T997 874Q997 812 1063 812Q1112 812 1156 872Q1105 922 1057 922ZM485 957Q465 957 449 942T434 907Q434 886 449 870T485 855Q538 855 538 907Q538 957 485 957ZM757 462Q733 462 718 432Q705 406 705 379Q705 318 757 263Q806 314 806 372Q806 462 757 462Z" horiz-adv-x="1515" unicode="ຜ"/>
			<glyph d="M1366 1228V1094Q1337 1094 1315 1077Q1290 1059 1290 1032Q1290 943 1353 761T1417 485Q1417 287 1305 144Q1183 -12 990 -12Q852 -12 757 80Q660 -12 525 -12Q327 -12 208 140Q98 279 98 482Q98 675 193 843Q306 1042 487 1042Q540 1042 581 1001T623 907Q623 851 583 810T487 770Q403 770 369 837Q313 782 281 670Q255 575 255 480Q255 346 321 241Q398 122 525 122Q600 122 654 165Q570 261 570 389Q570 473 620 532T753 591Q841 591 892 533Q941 478 941 389Q941 259 861 165Q904 122 990 122Q1115 122 1193 246Q1260 353 1260 485Q1260 581 1197 760T1134 1033Q1134 1228 1366 1228ZM485 957Q465 957 449 942T434 907Q434 886 449 870T485 855Q538 855 538 907Q538 957 485 957ZM757 470Q733 470 718 440Q705 414 705 387Q705 314 757 259Q774 277 790 316T806 380Q806 470 757 470Z" horiz-adv-x="1515" unicode="ຝ"/>
			<glyph d="M229 1042Q296 1042 338 1001T381 893Q381 829 336 670T291 448Q291 311 356 223Q429 122 561 122Q637 122 690 165Q607 261 607 389Q607 473 657 532T789 591Q877 591 929 533Q977 478 977 389Q977 259 898 165Q940 122 1026 122Q1152 122 1229 236Q1297 336 1297 467Q1297 585 1238 736Q1188 870 1111 983L1257 1042Q1453 723 1453 467Q1453 270 1341 134Q1221 -12 1026 -12Q889 -12 794 80Q695 -12 561 -12Q362 -12 245 122Q135 249 135 450Q135 548 210 774Q163 774 128 813T93 907Q93 960 134 1001T229 1042ZM794 461Q743 461 743 387Q743 312 794 259Q811 277 826 316T841 380Q841 461 794 461ZM231 957Q178 957 178 907Q178 855 231 855Q251 855 266 870T282 907Q282 927 266 942T231 957Z" horiz-adv-x="1551" unicode="ພ"/>
			<glyph d="M1402 1228V1094Q1373 1094 1351 1077Q1326 1059 1326 1032Q1326 943 1389 756T1453 476Q1453 279 1341 138Q1221 -12 1026 -12Q889 -12 794 80Q695 -12 561 -12Q362 -12 245 122Q135 249 135 450Q135 548 210 774Q163 774 128 813T93 907Q93 960 134 1001T229 1042Q296 1042 338 1001T381 893Q381 829 336 670T291 448Q291 311 356 223Q429 122 561 122Q637 122 690 165Q607 261 607 389Q607 473 657 532T789 591Q877 591 929 533Q977 478 977 389Q977 259 898 165Q940 122 1026 122Q1152 122 1229 240Q1297 343 1297 475Q1297 571 1233 755T1170 1033Q1170 1228 1402 1228ZM794 461Q743 461 743 387Q743 312 794 259Q811 277 826 316T841 380Q841 461 794 461ZM231 957Q178 957 178 907Q178 855 231 855Q251 855 266 870T282 907Q282 927 266 942T231 957Z" horiz-adv-x="1551" unicode="ຟ"/>
			<glyph d="M459 1042Q571 750 571 534Q571 381 516 236Q728 122 875 122Q1004 122 1083 226Q1154 321 1154 452Q1154 685 971 972L1108 1042Q1213 853 1249 762Q1310 608 1310 458Q1310 256 1195 125Q1073 -12 875 -12Q701 -12 463 116Q382 -12 263 -12Q193 -12 146 39T100 160Q100 237 146 285T269 333Q316 333 388 300Q415 394 415 536Q415 720 313 968ZM263 220Q243 220 228 200T213 160Q213 106 263 106Q314 106 349 182Q296 220 263 220Z" horiz-adv-x="1408" unicode="ມ"/>
			<glyph d="M1166 1228V1094Q1084 1094 1084 1017Q1084 922 1150 742T1217 469Q1217 235 1050 106Q899 -12 655 -12Q424 -12 283 56Q98 146 98 345Q98 447 168 524Q107 608 107 710Q107 854 208 948T456 1042Q527 1042 577 1005Q632 964 632 896Q632 840 592 800T496 760Q389 760 365 860Q255 821 255 708Q255 669 274 628Q352 676 461 676Q553 676 616 633Q687 585 687 500Q687 419 618 371Q557 329 469 329Q357 329 271 408Q255 378 255 345Q255 219 395 162Q496 122 648 122Q831 122 940 204Q1061 295 1061 470Q1061 554 993 734T925 1018Q925 1228 1166 1228ZM494 947Q443 947 443 896Q443 845 494 845Q546 845 546 896Q546 947 494 947ZM461 557Q403 557 341 510Q414 446 473 446Q501 446 526 459Q556 475 556 500Q556 557 461 557Z" horiz-adv-x="1291" unicode="ຢ"/>
			<glyph d="M583 1042Q765 1042 907 985Q1079 914 1148 772L1004 723Q911 908 581 908Q463 908 373 880Q255 843 255 772Q255 710 411 670Q443 661 609 633Q723 616 837 597Q986 567 1064 514Q1168 444 1168 327Q1168 158 975 63Q820 -12 632 -12Q451 -12 296 67Q111 161 111 312Q111 394 154 446Q201 503 281 503Q337 503 378 463T420 367Q420 247 290 231Q390 122 632 122Q780 122 883 164Q1012 218 1012 326Q1012 412 850 457Q812 467 612 499Q367 538 298 562Q98 631 98 772Q98 905 284 982Q428 1042 583 1042ZM281 418Q231 418 231 367Q231 316 281 316Q334 316 334 367Q334 418 281 418Z" horiz-adv-x="1266" unicode="ຣ"/>
			<glyph d="M659 1042Q892 1042 1033 906T1174 539Q1174 332 1091 178Q989 -12 797 -12Q707 -12 544 115Q403 225 356 225Q407 192 407 123Q407 67 366 27T269 -12Q194 -12 146 38T98 162Q98 253 169 310Q235 364 327 364Q429 364 608 226Q743 122 797 122Q914 122 974 284Q1017 401 1017 541Q1017 702 918 805T659 908Q357 908 222 633L83 682Q247 1042 659 1042ZM269 175Q218 175 218 123Q218 73 269 73Q321 73 321 123Q321 175 269 175Z" horiz-adv-x="1272" unicode="ລ"/>
			<glyph d="M650 1042Q885 1042 1028 911Q1174 777 1174 548Q1174 309 1020 148T627 -12Q436 -12 285 67Q98 164 98 340Q98 421 140 474Q184 530 263 530Q320 530 361 490T402 394Q402 341 367 303T280 258Q389 122 627 122Q805 122 914 249Q1017 370 1017 550Q1017 709 914 808T650 908Q352 908 217 633L83 682Q247 1042 650 1042ZM263 445Q213 445 213 394Q213 343 263 343Q316 343 316 394Q316 445 263 445Z" horiz-adv-x="1272" unicode="ວ"/>
			<glyph d="M520 1042Q800 1042 992 900Q1047 970 1075 1042H1222Q1164 883 1085 812Q1188 665 1188 484Q1188 279 1105 147Q1006 -12 812 -12Q722 -12 558 115Q417 225 371 225Q421 192 421 123Q421 67 380 27T283 -12Q210 -12 164 43Q121 96 121 171Q121 255 187 310Q251 362 341 362Q411 362 488 318Q526 295 615 227Q751 122 812 122Q933 122 990 252Q1032 348 1032 486Q1032 619 955 737Q883 683 749 648Q626 616 523 616Q369 616 265 649Q106 701 106 822Q106 946 262 1003Q370 1042 520 1042ZM519 909Q243 909 243 826Q243 743 522 743Q721 743 879 822Q741 909 519 909ZM283 175Q263 175 247 159T232 123Q232 103 247 88T283 73Q336 73 336 123Q336 175 283 175Z" horiz-adv-x="1286" unicode="ສ"/>
			<glyph d="M236 1042Q303 1042 346 1001T389 893Q389 852 354 735Q306 575 306 415Q306 294 351 217Q407 122 520 122Q640 122 700 233Q746 321 746 453Q746 616 706 777Q654 756 610 756Q548 756 510 796T472 899Q472 965 512 1003T620 1042Q712 1042 773 943Q896 1042 1000 1042Q1330 1042 1330 561Q1330 310 1190 -12L1038 38Q1174 318 1174 561Q1174 706 1150 781Q1111 908 998 908Q944 908 829 844Q902 661 902 453Q902 252 812 129Q710 -12 514 -12Q332 -12 235 115Q150 229 150 417Q150 575 218 759Q166 768 133 806T100 899Q100 957 139 999T236 1042ZM608 950Q557 950 557 899Q557 848 608 848Q633 848 677 874Q651 950 608 950ZM238 950Q185 950 185 899Q185 848 238 848Q289 848 289 899Q289 919 273 934T238 950Z" horiz-adv-x="1429" unicode="ຫ"/>
			<glyph d="M540 1042Q785 1042 966 909Q1174 757 1174 503Q1174 250 1017 115Q867 -12 601 -12Q410 -12 270 67Q98 162 98 340Q98 420 143 474Q190 530 269 530Q326 530 366 490T407 394Q407 338 371 301Q333 261 265 258Q357 122 598 122Q1017 122 1017 505Q1017 608 973 681Q895 623 765 584Q642 546 538 546Q388 546 273 594Q120 660 120 790Q120 921 274 989Q393 1042 540 1042ZM542 914Q462 914 378 889Q262 855 262 794Q262 732 374 696Q457 670 536 670Q617 670 722 704T895 786Q761 914 542 914ZM269 445Q218 445 218 394Q218 343 269 343Q321 343 321 394Q321 445 269 445Z" horiz-adv-x="1272" unicode="ອ"/>
			<glyph d="M1095 1057L1208 968Q1103 782 922 782Q831 782 639 845T364 908Q324 908 292 890Q255 868 255 829Q255 754 402 702Q419 696 635 642Q883 580 974 538Q1172 445 1172 298Q1172 130 977 48Q834 -12 635 -12Q456 -12 315 55Q136 141 136 301Q136 382 178 435Q224 491 302 491Q359 491 399 451T440 356Q440 302 404 263T312 219Q422 122 635 122Q773 122 869 150Q1016 193 1016 296Q1016 376 878 433Q810 461 640 502Q376 565 304 596Q98 683 98 829Q98 1042 365 1042Q468 1042 655 979T924 916Q1014 916 1095 1057ZM302 406Q251 406 251 356Q251 305 302 305Q355 305 355 356Q355 406 302 406Z" horiz-adv-x="1284" unicode="ຮ"/>
			<glyph d="M645 990H803V0H647V687Q604 608 508 561Q419 515 326 515Q209 515 134 577Q54 644 54 757Q54 814 96 856T196 899Q255 899 297 857T340 757Q340 663 243 623Q277 610 326 610Q469 610 558 732Q636 837 645 990ZM196 803Q151 803 151 757Q151 710 196 710Q243 710 243 757Q243 803 196 803Z" horiz-adv-x="939" unicode="ຯ"/>
			<glyph d="M249 1042Q311 1042 352 999T394 894Q394 844 357 804Q368 799 384 799Q463 799 521 861Q571 916 589 999H701Q676 860 584 776Q489 689 350 689Q252 689 183 742Q106 799 106 894Q106 955 147 998T249 1042ZM249 528Q311 528 352 485T394 380Q394 330 357 289Q368 285 384 285Q463 285 521 347Q571 402 589 484H701Q676 346 584 262Q489 175 350 175Q252 175 183 227Q106 285 106 380Q106 441 147 484T249 528ZM249 948Q201 948 201 900Q201 852 249 852Q298 852 298 900Q298 948 249 948ZM249 434Q201 434 201 386Q201 337 249 337Q298 337 298 386Q298 434 249 434Z" horiz-adv-x="785" unicode="ະ"/>
			<glyph d="M-200 1508Q-147 1508 -112 1474T-77 1386Q-77 1355 -96 1331Q-65 1323 -35 1323Q55 1323 123 1364Q201 1409 218 1490H306Q281 1368 185 1303Q96 1242 -35 1242Q-324 1242 -324 1386Q-324 1439 -288 1473T-200 1508ZM-200 1432Q-241 1432 -241 1391Q-241 1349 -200 1349Q-159 1349 -159 1391Q-159 1432 -200 1432Z" unicode="ັ"/>
			<glyph d="M374 1042Q548 1042 659 922Q766 805 766 630Q766 479 709 299Q655 130 570 -9L428 50Q610 324 610 632Q610 744 548 823Q481 908 373 908Q301 908 253 882Q303 874 337 837T371 750Q371 695 329 655T232 615Q156 615 107 674Q62 729 62 807Q62 924 163 988Q249 1042 374 1042ZM232 802Q182 802 182 750Q182 700 232 700Q286 700 286 750Q286 802 232 802Z" horiz-adv-x="865" unicode="າ"/>
			<glyph d="M138 1345Q192 1345 229 1306T267 1215Q267 1163 229 1125T138 1087Q85 1087 47 1124T9 1215Q9 1268 47 1306T138 1345ZM374 1042Q548 1042 659 922Q766 805 766 630Q766 479 709 299Q655 130 570 -9L428 50Q610 324 610 632Q610 744 548 823Q481 908 373 908Q301 908 253 882Q303 874 337 837T371 750Q371 695 329 655T232 615Q156 615 107 674Q62 729 62 807Q62 924 163 988Q249 1042 374 1042ZM138 1276Q78 1276 78 1215Q78 1156 138 1156Q198 1156 198 1215Q198 1276 138 1276ZM232 802Q182 802 182 750Q182 700 232 700Q286 700 286 750Q286 802 232 802Z" horiz-adv-x="865" unicode="ຳ"/>
			<glyph d="M0 1533Q193 1533 279 1500Q368 1464 368 1382Q368 1291 263 1260Q204 1242 84 1242V1330H121Q274 1330 274 1382Q274 1449 36 1449H-36Q-273 1449 -273 1382Q-273 1330 -120 1330H-83V1242Q-203 1242 -263 1260Q-367 1291 -367 1382Q-367 1464 -278 1500Q-192 1533 0 1533Z" unicode="ິ"/>
			<glyph d="M0 1533Q193 1533 279 1500Q368 1464 368 1382Q368 1360 344 1330H496V1242H84V1330H141Q274 1330 274 1382Q274 1449 36 1449H-36Q-273 1449 -273 1382Q-273 1330 -120 1330H-83V1242Q-215 1242 -265 1257Q-367 1286 -367 1382Q-367 1464 -278 1500Q-192 1533 0 1533Z" unicode="ີ"/>
			<glyph d="M0 1533Q193 1533 279 1500Q368 1464 368 1382Q368 1291 263 1260Q204 1242 84 1242V1330H121Q274 1330 274 1382Q274 1449 36 1449H-36Q-273 1449 -273 1382Q-273 1330 -120 1330H-83V1242Q-203 1242 -263 1260Q-367 1291 -367 1382Q-367 1464 -278 1500Q-192 1533 0 1533ZM0 1436Q54 1436 54 1379Q54 1326 0 1326Q-54 1326 -54 1382Q-54 1436 0 1436Z" unicode="ຶ"/>
			<glyph d="M0 1533Q193 1533 279 1500Q368 1464 368 1382Q368 1360 344 1330H496V1242H84V1330H141Q274 1330 274 1382Q274 1449 36 1449H-36Q-273 1449 -273 1382Q-273 1330 -120 1330H-83V1242Q-215 1242 -265 1257Q-367 1286 -367 1382Q-367 1464 -278 1500Q-192 1533 0 1533ZM0 1437Q54 1437 54 1380Q54 1326 0 1326Q-54 1326 -54 1383Q-54 1437 0 1437Z" unicode="ື"/>
			<glyph d="M-1 -18Q44 -18 71 -46T99 -120Q99 -189 17 -254L-38 -225Q-25 -215 -4 -193Q-44 -193 -71 -169T-99 -106Q-99 -67 -70 -42T-1 -18ZM-1 -77Q-30 -77 -30 -107Q-30 -137 -1 -137Q29 -137 29 -107Q29 -77 -1 -77Z" unicode="ຸ"/>
			<glyph d="M-90 -18Q-50 -18 -20 -45T10 -113V-132Q10 -187 49 -187Q95 -187 95 -132V-51H189V-136Q189 -263 49 -263Q16 -263 -17 -242Q-52 -220 -60 -192Q-73 -199 -90 -199Q-131 -199 -159 -174T-187 -109Q-187 -70 -158 -44T-90 -18ZM-90 -80Q-122 -80 -122 -109Q-122 -141 -90 -141Q-59 -141 -59 -109Q-59 -80 -90 -80Z" unicode="ູ"/>
			<glyph d="M-35 1508Q96 1508 185 1447Q281 1382 306 1260H218Q201 1340 123 1385Q55 1426 -35 1426Q-65 1426 -96 1418Q-77 1394 -77 1363Q-77 1310 -112 1276T-200 1242Q-253 1242 -288 1276T-324 1363Q-324 1508 -35 1508ZM-200 1401Q-241 1401 -241 1359Q-241 1318 -200 1318Q-159 1318 -159 1359Q-159 1401 -200 1401Z" unicode="ົ"/>
			<glyph d="M-133 -18Q-93 -18 -17 -39T90 -61Q153 -61 222 -18L255 -79Q184 -133 87 -133Q57 -133 3 -116Q-64 -96 -80 -93Q-75 -106 -75 -117Q-75 -153 -100 -175T-163 -197Q-202 -197 -228 -173T-254 -112Q-254 -18 -133 -18ZM-163 -82Q-192 -82 -192 -110Q-192 -137 -163 -137Q-136 -137 -136 -110Q-136 -82 -163 -82Z" unicode="ຼ"/>
			<glyph d="M218 1042Q341 1009 463 1009Q585 1009 695 1042L732 917Q598 875 468 875Q740 577 740 231Q740 -12 644 -167Q528 -355 300 -355Q183 -355 94 -285Q0 -212 0 -108Q0 -35 47 19T167 74Q224 74 264 34T305 -63Q305 -111 274 -148T196 -193Q235 -221 307 -221Q464 -221 533 -66Q584 47 584 225Q584 422 474 616Q368 805 187 935ZM167 -12Q146 -12 131 -27T116 -63Q116 -83 131 -98T167 -114Q220 -114 220 -63Q220 -12 167 -12Z" horiz-adv-x="837" unicode="ຽ"/>
			<glyph d="M451 1023Q594 1023 702 883L598 793Q532 889 440 889Q319 889 261 752Q218 651 218 513Q218 410 264 315Q319 203 409 184Q442 263 527 263Q583 263 623 223T663 127Q663 74 621 32T527 -9Q312 -9 183 149Q62 295 62 513Q62 730 145 862Q245 1023 451 1023ZM525 178Q475 178 475 127Q475 76 525 76Q577 76 577 127Q577 178 525 178Z" horiz-adv-x="763" unicode="ເ"/>
			<glyph d="M451 1023Q594 1023 702 883L598 793Q532 889 440 889Q319 889 261 752Q218 651 218 513Q218 410 264 315Q319 203 409 184Q442 263 527 263Q583 263 623 223T663 127Q663 74 621 32T527 -9Q312 -9 183 149Q62 295 62 513Q62 730 145 862Q245 1023 451 1023ZM525 178Q475 178 475 127Q475 76 525 76Q577 76 577 127Q577 178 525 178ZM1153 1023Q1296 1023 1404 883L1300 793Q1234 889 1142 889Q1021 889 963 752Q920 651 920 513Q920 410 966 315Q1021 203 1111 184Q1144 263 1229 263Q1285 263 1325 223T1365 127Q1365 74 1323 32T1229 -9Q1014 -9 885 149Q764 295 764 513Q764 730 847 862Q947 1023 1153 1023ZM1227 178Q1177 178 1177 127Q1177 76 1227 76Q1279 76 1279 127Q1279 178 1227 178Z" horiz-adv-x="1464" unicode="ແ"/>
			<glyph d="M285 1794Q387 1794 473 1724Q516 1688 611 1573L745 1409L634 1319L498 1490Q362 1660 285 1660Q249 1660 228 1632T207 1568Q207 1495 383 1281Q570 1053 570 979Q570 930 464 725Q319 445 319 347Q319 239 375 196Q409 263 493 263Q549 263 589 223T630 127Q630 74 588 32T493 -9Q341 -9 250 94Q163 192 163 347Q163 458 322 773Q414 955 414 983Q414 1020 266 1206Q138 1367 115 1402Q51 1491 51 1563Q51 1668 115 1731T285 1794ZM491 178Q441 178 441 127Q441 76 491 76Q544 76 544 127Q544 178 491 178Z" horiz-adv-x="781" unicode="ໂ"/>
			<glyph d="M405 1860Q578 1860 680 1753Q780 1647 780 1473Q780 1341 597 911Q497 674 470 604Q401 420 401 338Q401 245 461 196Q495 263 579 263Q635 263 675 223T716 127Q716 74 674 32T579 -9Q429 -9 335 95Q245 195 245 347Q245 427 313 613Q371 760 429 908Q491 1061 554 1213Q621 1387 621 1477Q621 1576 562 1649Q500 1726 405 1726Q305 1726 245 1657Q187 1591 187 1487Q187 1403 243 1344Q296 1287 381 1272L360 1138Q209 1153 120 1245T31 1487Q31 1650 137 1755T405 1860ZM577 178Q527 178 527 127Q527 76 577 76Q631 76 631 127Q631 178 577 178Z" horiz-adv-x="810" unicode="ໃ"/>
			<glyph d="M220 1838L397 1493Q501 1272 501 1120Q501 1027 381 741Q340 645 299 549Q250 422 250 347Q250 245 310 196Q344 263 428 263Q484 263 524 223T565 127Q565 74 524 32T428 -9Q279 -9 184 95Q94 195 94 347Q94 457 216 742Q298 935 314 972Q345 1058 345 1128Q345 1258 265 1429Q199 1571 90 1775ZM427 178Q376 178 376 127Q376 76 427 76Q480 76 480 127Q480 178 427 178Z" horiz-adv-x="629" unicode="ໄ"/>
			<glyph d="M307 1042Q347 1042 417 1015T506 989Q530 989 599 1014T709 1040Q853 1040 907 876Q939 775 939 578V337Q939 66 873 -101Q772 -355 506 -355Q367 -355 269 -293Q179 -237 98 -113L217 -37Q342 -221 499 -221Q683 -221 747 -5Q783 116 783 318V623Q785 908 692 908Q660 908 593 879T506 850Q485 850 415 879T319 908Q276 908 244 854Q216 807 216 760Q279 760 319 721T360 624Q360 569 319 528T222 488Q150 488 104 549Q62 604 62 679Q62 816 115 916Q181 1042 307 1042ZM222 675Q171 675 171 624Q171 573 222 573Q274 573 274 624Q274 675 222 675Z" horiz-adv-x="1037" unicode="ໆ"/>
			<glyph d="M1 1508Q68 1508 68 1443L42 1242H-35L-67 1443Q-67 1508 1 1508Z" unicode="່"/>
			<glyph d="M0 1542Q48 1542 80 1511T112 1433Q112 1368 35 1329Q263 1362 387 1484L439 1425Q259 1242 -101 1242V1319Q-58 1319 -23 1341Q-110 1354 -110 1440Q-110 1484 -77 1513T0 1542ZM0 1473Q-36 1473 -36 1437Q-36 1400 0 1400Q38 1400 38 1437Q38 1473 0 1473Z" unicode="້"/>
			<glyph d="M-112 1535Q-43 1535 -3 1475H4Q36 1535 119 1535Q184 1535 223 1498T262 1399Q262 1357 233 1330H347V1242H68V1330Q170 1330 170 1397Q170 1451 110 1451Q85 1451 65 1425Q47 1401 43 1375H-44Q-46 1451 -106 1451Q-166 1451 -166 1381Q-166 1360 -161 1351Q-146 1374 -110 1374Q-83 1374 -65 1354T-47 1307Q-47 1243 -132 1243Q-186 1243 -224 1290Q-259 1333 -259 1389Q-259 1453 -218 1494T-112 1535Z" unicode="໊"/>
			<glyph d="M-39 1493H38V1406H125V1329H38V1242H-39V1329H-126V1406H-39Z" unicode="໋"/>
			<glyph d="M323 1526L392 1473Q335 1425 214 1425Q115 1424 85 1414Q111 1390 111 1345Q111 1299 78 1270T0 1242Q-47 1242 -79 1272T-111 1349Q-111 1504 195 1504Q295 1504 323 1526ZM0 1386Q-37 1386 -37 1349Q-37 1312 0 1312Q37 1312 37 1349Q37 1386 0 1386Z" unicode="໌"/>
			<glyph d="M0 1463Q48 1463 79 1429T111 1348Q111 1302 78 1272T0 1242Q-47 1242 -78 1274T-110 1353Q-110 1397 -77 1430T0 1463ZM0 1389Q-36 1389 -36 1353Q-36 1315 0 1315Q37 1315 37 1353Q37 1389 0 1389Z" unicode="ໍ"/>
			<glyph d="M652 1042Q888 1042 1044 897Q1205 748 1205 514Q1205 283 1043 133Q885 -12 652 -12Q419 -12 261 133Q98 283 98 514Q98 748 260 897Q416 1042 652 1042ZM652 908Q483 908 370 796T258 512Q258 345 372 233T652 122Q818 122 932 233T1046 512Q1046 684 933 796T652 908Z" horiz-adv-x="1310" unicode="໐"/>
			<glyph d="M652 1042Q897 1042 1045 926Q1208 798 1208 561Q1208 260 899 -17L785 94Q1052 302 1052 561Q1052 735 935 826Q830 908 652 908Q472 908 369 828Q255 738 255 561Q255 447 302 360Q359 254 465 254Q507 254 541 279Q480 309 480 389Q480 445 520 485T617 526Q690 526 735 475Q778 426 778 357Q778 250 673 178Q582 120 468 120Q297 120 192 259Q98 385 98 559Q98 801 258 927Q403 1042 652 1042ZM617 441Q565 441 565 389Q565 339 617 339Q669 339 669 389Q669 410 653 425T617 441Z" horiz-adv-x="1307" unicode="໑"/>
			<glyph d="M819 1422L961 1373Q900 1206 821 1103Q757 1019 609 894Q446 756 395 697Q278 564 278 440Q278 308 385 213Q488 122 621 122Q703 122 742 143Q672 199 672 283Q672 357 723 401Q771 443 846 443Q920 443 967 388Q1012 336 1012 263Q1012 127 872 51Q757 -12 607 -12Q405 -12 266 111Q122 239 122 436Q122 589 236 740Q312 840 472 973Q608 1087 679 1174Q771 1285 819 1422Z" horiz-adv-x="1092" unicode="໒"/>
			<glyph d="M601 1484Q655 1484 730 1455L1077 1318L1010 1201L658 1341Q636 1350 601 1350Q583 1350 564 1330T546 1288Q546 1252 606 1221Q617 1215 690 1188Q862 1122 917 1095Q1208 954 1208 571Q1208 360 1139 206Q1048 0 861 0Q687 0 504 192Q436 75 368 31Q308 -9 216 -9Q162 -9 121 32T80 127Q80 183 120 223T216 263Q301 263 334 196Q385 259 407 315Q335 414 286 544Q231 687 231 796Q231 891 280 954Q335 1023 430 1023Q652 1023 652 658Q652 530 578 335Q631 263 702 205Q789 134 856 134Q969 134 1019 310Q1052 425 1052 577Q1052 883 826 986Q739 1026 585 1080Q390 1149 390 1282Q390 1365 454 1424T601 1484ZM430 889Q387 889 387 798Q387 643 470 476Q496 578 496 660Q496 889 430 889ZM218 178Q165 178 165 127Q165 76 218 76Q269 76 269 127Q269 178 218 178Z" horiz-adv-x="1291" unicode="໓"/>
			<glyph d="M974 1385H1130V1210Q1130 1073 1044 1009Q992 969 836 926Q685 883 522 838Q349 789 302 731T255 506V436Q255 122 376 122Q424 122 600 222Q558 298 558 411Q558 553 654 654T894 756Q967 756 1022 716Q1083 671 1083 601Q1083 546 1042 505T946 465Q841 465 816 567Q710 530 710 409Q710 335 730 291Q821 343 917 343Q1010 343 1074 302Q1148 253 1148 164Q1148 80 1079 31Q1018 -12 930 -12Q799 -12 676 102Q485 -12 378 -12Q195 -12 134 165Q98 267 98 496Q98 734 161 823Q227 920 440 974L665 1032Q844 1078 864 1087Q974 1135 974 1236ZM945 652Q894 652 894 601Q894 551 945 551Q997 551 997 601Q997 652 945 652ZM917 220Q870 220 794 173Q867 109 929 109Q958 109 982 122Q1012 137 1012 164Q1012 220 917 220Z" horiz-adv-x="1246" unicode="໔"/>
			<glyph d="M988 1385H1144V1288Q1144 1146 1048 1063Q956 983 812 983Q741 911 520 833Q340 769 308 738Q255 688 255 530V436Q255 122 376 122Q424 122 600 222Q558 298 558 411Q558 553 654 654T894 756Q967 756 1022 716Q1083 671 1083 601Q1083 546 1042 505T946 465Q899 465 861 496T816 576Q768 559 739 510T710 409Q710 335 730 291Q821 343 917 343Q1010 343 1074 302Q1148 253 1148 164Q1148 80 1079 31Q1018 -12 930 -12Q799 -12 676 102Q485 -12 378 -12Q195 -12 134 168Q98 271 98 509Q98 696 139 781Q175 857 267 897Q379 934 491 972Q600 1009 632 1037Q576 1079 576 1164Q576 1241 627 1289T757 1338Q841 1338 891 1282Q938 1227 938 1142Q988 1171 988 1297ZM757 1217Q737 1217 721 1200T705 1164Q705 1143 725 1125T766 1104Q810 1130 810 1164Q810 1185 794 1201T757 1217ZM945 652Q894 652 894 601Q894 551 945 551Q997 551 997 601Q997 652 945 652ZM917 220Q870 220 794 173Q867 109 929 109Q958 109 982 122Q1012 137 1012 164Q1012 220 917 220Z" horiz-adv-x="1246" unicode="໕"/>
			<glyph d="M810 1482Q865 1482 939 1453L1286 1316L1219 1199L867 1339Q845 1348 810 1348Q791 1348 773 1329T756 1286Q756 1250 812 1221Q822 1215 899 1186Q1072 1120 1126 1091Q1271 1011 1347 861Q1417 723 1417 549Q1417 337 1313 175Q1192 -12 990 -12Q852 -12 757 80Q660 -12 525 -12Q327 -12 208 140Q98 279 98 482Q98 675 193 843Q306 1042 487 1042Q540 1042 581 1001T623 907Q623 851 583 810T487 770Q403 770 369 837Q313 782 281 670Q255 575 255 480Q255 346 321 241Q398 122 525 122Q600 122 654 165Q572 259 572 377Q572 463 623 520T759 577Q844 577 893 519Q939 464 939 377Q939 257 861 165Q904 122 990 122Q1119 122 1197 279Q1260 407 1260 549Q1260 907 937 1021L794 1071Q600 1141 600 1280Q600 1363 663 1422T810 1482ZM485 957Q465 957 449 942T434 907Q434 886 449 870T485 855Q538 855 538 907Q538 957 485 957ZM757 451Q707 451 707 375Q707 312 757 259Q805 309 805 368Q805 451 757 451Z" horiz-adv-x="1515" unicode="໖"/>
			<glyph d="M263 1028Q382 1028 463 899Q703 1028 875 1028Q1073 1028 1179 893Q1276 770 1276 567V-355H1119V567Q1119 687 1058 783Q988 894 875 894Q717 894 516 783Q570 622 570 483Q570 334 504 181Q420 -9 287 -9Q229 -9 187 29T145 127Q145 183 185 223T281 263Q318 263 356 247Q414 327 414 482Q414 629 389 713Q320 683 269 683Q192 683 146 731T100 855Q100 926 146 977T263 1028ZM263 910Q213 910 213 855Q213 834 228 815T263 796Q296 796 349 834Q314 910 263 910ZM283 178Q231 178 231 127Q231 76 283 76Q334 76 334 127Q334 147 318 162T283 178Z" horiz-adv-x="1373" unicode="໗"/>
			<glyph d="M418 1028Q464 1028 548 997T671 966Q713 966 800 997T932 1028Q1106 1028 1173 883Q1217 784 1217 588V225Q1217 98 1119 27Q1206 -22 1206 -126Q1206 -200 1152 -247T1024 -294Q947 -294 895 -246T843 -121Q843 -90 854 -69Q812 -78 742 -109L412 -257Q347 -287 296 -287Q204 -287 151 -236T98 -97Q98 44 256 111L988 419Q1061 449 1061 559Q1061 694 1049 758Q1040 807 1010 847Q975 894 930 894Q890 894 804 860T676 827Q624 827 537 858T412 889Q255 889 255 679Q255 550 364 516Q369 556 410 585Q448 612 491 612Q546 612 586 572T627 476Q627 423 585 381T491 340Q329 340 218 427Q98 521 98 678Q98 825 182 923Q271 1028 418 1028ZM489 527Q468 527 453 512T438 476Q438 425 489 425Q541 425 541 476Q541 527 489 527ZM1021 -66Q981 -90 981 -121Q981 -164 1024 -164Q1068 -164 1068 -121Q1068 -86 1021 -66ZM1061 283L338 -18Q255 -52 255 -98Q255 -153 296 -153Q318 -153 387 -122L761 41Q844 77 941 77Q966 77 983 75Q1061 122 1061 240Z" horiz-adv-x="1315" unicode="໘"/>
			<glyph d="M498 1028Q686 1028 795 926T904 644Q904 624 903 608L890 389Q889 373 889 362Q889 271 952 198Q1017 122 1115 122Q1252 122 1318 234Q1371 324 1371 470Q1371 707 1238 977L1383 1028Q1527 696 1527 470Q1527 271 1425 137Q1312 -12 1117 -12Q959 -12 847 91Q733 198 733 348Q733 363 734 378L747 605Q748 620 748 632Q748 752 687 820Q624 894 503 894Q373 894 310 797Q255 715 255 579Q255 304 369 192Q403 260 487 260Q543 260 583 219T623 123Q623 70 581 29T487 -12Q301 -12 189 200Q98 374 98 577Q98 779 195 898Q301 1028 498 1028ZM485 175Q465 175 449 159T434 123Q434 73 485 73Q538 73 538 123Q538 175 485 175Z" horiz-adv-x="1645" unicode="໙"/>
			<glyph d="M236 1028Q303 1028 346 987T389 879Q389 823 354 716Q293 527 293 439Q293 122 563 122Q836 122 836 490Q836 640 808 732Q720 683 688 683Q612 683 566 731T520 855Q520 926 566 977T683 1028Q814 1028 892 908Q1066 1028 1205 1028Q1416 1028 1516 878Q1602 750 1602 530Q1602 375 1550 238Q1671 122 1796 122Q1922 122 1994 227Q2056 318 2056 448Q2056 668 1874 954L2011 1028Q2115 840 2151 753Q2212 600 2212 453Q2212 253 2108 126Q1995 -12 1796 -12Q1641 -12 1490 113Q1451 43 1399 -8L1284 97Q1446 268 1446 531Q1446 676 1397 771Q1335 894 1205 894Q1087 894 938 794Q992 632 992 488Q992 264 892 134Q781 -12 563 -12Q350 -12 241 110Q137 226 137 441Q137 579 208 748Q100 770 100 884Q100 938 141 983T236 1028ZM683 910Q662 910 647 893T632 855Q632 834 647 815T683 796Q717 796 768 834Q734 910 683 910ZM238 935Q185 935 185 884Q185 834 238 834Q289 834 289 884Q289 935 238 935Z" horiz-adv-x="2311" unicode="ໜ"/>
			<glyph d="M236 1028Q303 1028 346 987T389 879Q389 823 354 716Q293 527 293 439Q293 122 563 122Q836 122 836 490Q836 640 808 732Q720 683 688 683Q612 683 566 731T520 855Q520 926 566 977T683 1028Q814 1028 892 908Q1066 1028 1205 1028Q1602 1028 1602 538Q1602 381 1548 236Q1715 122 1796 122Q1921 122 1994 233Q2056 330 2056 461Q2056 654 1865 954L2011 1028Q2122 829 2151 759Q2212 612 2212 467Q2212 265 2108 132Q1994 -12 1796 -12Q1636 -12 1491 107Q1418 -12 1293 -12Q1223 -12 1176 37T1130 156Q1130 233 1176 281T1299 329Q1353 329 1418 298Q1446 386 1446 540Q1446 683 1397 775Q1335 894 1205 894Q1087 894 938 794Q992 632 992 488Q992 264 892 134Q781 -12 563 -12Q350 -12 241 110Q137 226 137 441Q137 579 208 748Q100 770 100 884Q100 938 141 983T236 1028ZM683 910Q662 910 647 893T632 855Q632 834 647 815T683 796Q717 796 768 834Q734 910 683 910ZM1293 216Q1273 216 1258 196T1243 156Q1243 106 1293 106Q1346 106 1378 178Q1327 216 1293 216ZM238 935Q185 935 185 884Q185 834 238 834Q289 834 289 884Q289 935 238 935Z" horiz-adv-x="2311" unicode="ໝ"/>
			<glyph d="M0 1594H66V253H0Z" horiz-adv-x="66" unicode="‌"/>
			<glyph d="M-123 1883L33 1727L189 1883L234 1838L75 1682L234 1526L189 1481L63 1607V253H0V1604L-123 1481L-165 1526L-9 1682L-165 1838Z" horiz-adv-x="63" unicode="‍"/>
			<glyph d="M90 635H1014V506H90Z" horiz-adv-x="1104" unicode="‒"/>
			<glyph d="M0 635H1024V506H0Z" horiz-adv-x="1024" unicode="–"/>
			<glyph d="M0 635H2048V506H0Z" horiz-adv-x="2048" unicode="—"/>
			<glyph d="M0 635H2048V506H0Z" horiz-adv-x="2048" unicode="―"/>
			<glyph d="M246 1458H364L256 1012H106Z" horiz-adv-x="469" unicode="‘"/>
			<glyph d="M221 1458H368L228 1012H110Z" horiz-adv-x="469" unicode="’"/>
			<glyph d="M551 1458H668L557 1012H410ZM246 1458H364L256 1012H106Z" horiz-adv-x="772" unicode="“"/>
			<glyph d="M522 1458H672L532 1012H414ZM221 1458H368L228 1012H110Z" horiz-adv-x="772" unicode="”"/>
			<glyph d="M418 912Q522 912 595 837T668 658Q668 554 595 481T418 408Q314 408 239 481T164 658Q164 761 239 836T418 912Z" horiz-adv-x="832" unicode="•"/>
			<glyph d="M1252 205Q1297 205 1329 171T1362 92Q1362 46 1329 14T1252 -18Q1206 -18 1174 14T1143 92Q1143 138 1174 171T1252 205ZM750 205Q795 205 827 171T860 92Q860 46 827 14T750 -18Q704 -18 671 14T639 92Q639 138 671 171T750 205ZM248 205Q293 205 325 171T358 92Q358 46 326 14T248 -18Q202 -18 171 14T140 92Q140 138 171 171T248 205Z" horiz-adv-x="1501" unicode="…"/>
			<glyph d="M769 1458Q906 1458 1014 1402V1240Q900 1318 758 1318Q633 1318 535 1217T399 947H896V807H377Q369 708 376 622H896V482H392Q464 116 742 116Q873 116 1014 203V50Q881 -24 732 -24Q305 -24 223 482H102V622H210Q206 653 206 699Q206 747 212 807H102V947H233Q284 1187 425 1322T769 1458Z" horiz-adv-x="1105" unicode="€"/>
			<glyph d="M932 968Q980 968 980 918Q980 868 932 868Q880 868 880 918Q880 968 932 968ZM784 1067Q832 1067 832 1016Q832 967 784 967Q732 967 732 1016Q732 1067 784 1067ZM1030 819Q1079 819 1079 770Q1079 719 1028 719Q979 719 979 770Q979 819 1030 819ZM1067 646Q1115 646 1115 596Q1115 546 1067 546Q1015 546 1015 596Q1015 646 1067 646ZM608 1102Q658 1102 658 1053Q658 1002 608 1002Q558 1002 558 1053Q558 1102 608 1102ZM434 1067Q485 1067 485 1016Q485 967 434 967Q385 967 385 1016Q385 1067 434 1067ZM1028 473Q1079 473 1079 422Q1079 373 1028 373Q979 373 979 422Q979 473 1028 473ZM287 968Q337 968 337 918Q337 868 287 868Q237 868 237 915Q237 968 287 968ZM932 323Q980 323 980 272Q980 223 932 223Q880 223 880 272Q880 323 932 323ZM784 226Q832 226 832 174Q832 126 784 126Q732 126 732 174Q732 226 784 226ZM188 819Q238 819 238 770Q238 719 190 719Q138 719 138 770Q138 819 188 819ZM154 646Q203 646 202 596Q203 546 154 546Q102 546 102 596Q102 646 154 646ZM608 190Q658 190 658 141Q658 90 608 90Q558 90 558 141Q558 190 608 190ZM188 473Q238 473 238 422Q238 373 188 373Q138 373 138 422Q138 473 188 473ZM434 226Q485 226 485 178Q485 126 434 126Q385 126 385 174Q385 226 434 226ZM287 323Q337 323 337 272Q337 223 287 223Q237 223 237 272Q237 323 287 323Z" horiz-adv-x="1217" unicode="◌"/>
			<glyph d="M284 1296H1480V100H284ZM408 1172V224H1356V1172Z" horiz-adv-x="1764" unicode="◻"/>
			<glyph d="M284 1294H1480V98H284Z" horiz-adv-x="1764" unicode="◼"/>
			<glyph d="M554 1045H1210V389H554ZM678 921V513H1086V921Z" horiz-adv-x="1764" unicode="◽"/>
			<glyph d="M554 1045H1210V389H554Z" horiz-adv-x="1764" unicode="◾"/>
		</font>
</defs>
</svg>
