<?xml version="1.0" encoding="UTF-8"?><svg xmlns="http://www.w3.org/2000/svg" width="100%" height="100%"><defs><font id="web" horiz-adv-x="1229"><!--





NOTICE: --><font-face font-family="" units-per-em="2048" panose-1="2 7 3 9 2 2 5 2 4 4" ascent="1798" descent="-494" alphabetic="0"/><missing-glyph d="M51 0V1536H1178V0H51ZM179 128H1050V1408H179V128Z"/><glyph unicode=" "/><glyph unicode="!" d="M764 1202Q764 1159 735 1053Q711 961 700 904T683 788T674 657H598Q595 790 583 870T537 1069Q512 1152 512 1200Q512 1259 548 1300T639 1341Q693 1341 728 1302T764 1202ZM793 109Q793 68 772 32T717 -24T639 -45Q596 -45 561 -25T506 31T485 109Q485 148 506 184T561 241T635 262Q678 262 715 242T772 186T793 109Z"/><glyph unicode="&quot;" d="M950 1186Q950 1139 920 1022Q887 887 876 815T858 616H793Q789 739 775 832T725 1040Q698 1137 698 1178Q698 1250 734 1298T827 1346Q882 1346 916 1301T950 1186ZM561 1180Q561 1139 539 1040Q517 953 505 889T486 763T475 616H416Q409 734 395 818T348 1016Q317 1134 317 1178Q317 1252 350 1297T438 1343Q475 1343 503 1322T546 1265T561 1180Z"/><glyph unicode="#" d="M1198 592H881L799 264H1114L1094 184H780L608 -494H537L705 184H356L186 -494H113L283 184H53V262H301L383 592H133L154 670H403L575 1350H649L479 670H827L997 1350H1075L903 670H1198V592ZM805 592H459L377 262H725L805 592Z"/><glyph unicode="$" d="M1114 336Q1114 257 1083 186T997 66Q956 28 915 10T791 -29V-182H735V-39H700Q670 -39 659 -39T635 -41Q588 -41 530 -31V-180H477V-27Q404 -5 365 14T281 68Q170 162 170 279Q170 332 198 364T272 397Q315 397 340 372T365 301Q365 268 352 250T307 215Q276 198 276 184Q276 157 326 115Q390 63 475 43V694Q415 715 386 730T322 774Q215 869 215 1008Q215 1075 242 1133T319 1233Q352 1261 386 1277T477 1311V1362H530V1321Q579 1329 641 1329Q686 1329 735 1323V1362H791V1317Q861 1294 903 1273T981 1219Q1083 1132 1083 1018Q1083 961 1056 925T985 889Q949 889 921 917T893 981Q893 1028 942 1063Q959 1074 966 1082T973 1102Q973 1131 928 1169Q872 1214 791 1235V700Q904 660 974 608T1079 489T1114 336ZM735 717V1245Q688 1255 629 1255Q580 1255 530 1247V762Q562 756 592 749T637 739T672 731L735 717ZM475 780V1231Q388 1207 337 1148T285 1010Q285 853 475 780ZM1042 326Q1042 526 791 616V43Q914 80 978 152T1042 326ZM735 33V635Q699 643 666 649Q590 668 563 672L530 678V35Q588 25 647 25Q703 25 735 33Z"/><glyph unicode="%" d="M985 1348L389 -479H307L872 1239L868 1243Q767 1172 682 1130T463 1038Q514 1006 540 958T567 854Q567 787 533 725T443 626T326 588Q248 588 199 642T150 784Q150 884 212 961T387 1083L438 1104Q625 1178 737 1243Q813 1286 895 1348H985ZM1108 68Q1108 -4 1078 -66T997 -166T887 -203Q802 -203 746 -137T690 29Q690 136 757 217T911 299Q997 299 1052 233T1108 68ZM487 856Q487 912 455 949T377 987Q320 987 274 925T227 786Q227 731 255 697T328 662Q391 662 439 721T487 856ZM1034 70Q1034 140 1001 180T911 221Q849 221 806 164T762 20Q762 -47 798 -89T891 -131Q930 -131 963 -105T1015 -31T1034 70Z"/><glyph unicode="&amp;" d="M1151 682Q1151 604 1083 604Q1051 604 1032 624T1012 678Q1012 696 1024 719Q973 717 941 693T877 602T813 420Q797 369 786 338L903 125Q952 37 1001 37Q1042 37 1058 79T1075 221H1143Q1140 85 1106 20T999 -45Q944 -45 901 -2T797 158Q792 168 782 185T752 238Q721 147 674 84T564 -11T424 -43Q290 -43 203 55T115 305Q115 478 231 608Q274 657 319 695T459 797Q348 985 348 1114Q348 1208 418 1274T590 1341Q650 1341 699 1312T777 1234T805 1124Q805 1033 745 950T555 780L743 422Q802 625 866 711T1022 797Q1079 797 1115 765T1151 682ZM733 1126Q733 1188 691 1230T588 1272Q520 1272 474 1224T428 1106Q428 1010 520 846Q634 924 683 988T733 1126ZM707 326L489 733Q414 683 370 646T281 555Q237 499 213 433T188 305Q188 231 219 167T306 66T428 29Q618 29 707 326Z"/><glyph unicode="'" d="M737 1180Q737 1123 700 989Q664 849 651 771T631 590H563Q562 654 555 719T535 851T498 1004Q479 1079 471 1120T463 1184Q463 1254 501 1297T600 1341Q661 1341 699 1297T737 1180Z"/><glyph unicode="(" d="M965 -485H848Q795 -436 768 -406Q655 -285 571 -102Q457 156 457 426Q457 549 482 679T556 929T674 1153Q708 1203 742 1243T842 1348H958Q927 1321 901 1297T862 1262Q821 1221 788 1178T722 1083T662 975Q601 848 569 708T537 426Q537 233 599 45T776 -297Q842 -385 965 -485Z"/><glyph unicode=")" d="M809 436Q809 305 785 180T712 -63T596 -285Q562 -336 524 -378T422 -483H307Q375 -425 401 -397Q528 -273 608 -102Q727 144 727 430Q727 633 668 818T496 1153Q451 1213 413 1251T301 1350H416Q462 1307 504 1262Q561 1201 610 1125T696 963Q750 839 779 706T809 436Z"/><glyph unicode="*" d="M1063 627L1012 541L653 788L680 348H575L610 784L244 537L195 629L592 821L195 1016L246 1102L610 862L580 1296H682L651 856L1012 1100L1063 1012L674 823L1063 627Z"/><glyph unicode="+" d="M1126 391H672V-61H594V391H137V469H594V926H672V469H1126V391Z"/><glyph unicode="," d="M793 90Q793 23 762 -51T672 -195Q635 -240 598 -269T485 -346L449 -291Q616 -159 616 -72Q616 -45 571 -16Q525 17 506 48T487 123Q487 183 530 224T633 266Q702 266 747 217T793 90Z"/><glyph unicode="-" d="M1079 395H190V469H1079V395Z"/><glyph unicode="." d="M774 113Q774 51 730 7T623 -37Q563 -37 518 7T473 113Q473 154 493 188T547 242T621 262Q685 262 729 219T774 113Z"/><glyph unicode="/" d="M1139 1339L207 -492H121L1055 1339H1139Z"/><glyph unicode="0" d="M1100 635Q1100 482 1068 358T975 144T830 6T643 -43Q531 -43 437 14T279 178Q232 260 203 386T174 647Q174 853 231 1011T392 1256T629 1343Q686 1343 737 1329T834 1288T923 1216T997 1120Q1030 1064 1052 991T1087 825T1100 635ZM1024 672Q1024 796 1000 899T931 1082T823 1208Q783 1237 733 1254T641 1272Q552 1272 478 1226T350 1090Q308 1017 281 889T254 625Q254 445 313 285Q344 202 414 129Q459 83 519 56T639 29Q724 29 800 78T930 217Q971 286 997 414T1024 672Z"/><glyph unicode="1" d="M1085 2H184V76H616V1223H172V1300H692V76H1085V2Z"/><glyph unicode="2" d="M1042 989Q1042 878 967 786Q926 735 867 691T684 575Q557 502 494 454T387 344Q317 242 283 88Q348 133 422 133Q483 133 602 82Q724 33 776 33Q833 33 874 65T938 155T961 291V324H1034Q1025 -41 778 -41Q699 -41 573 12Q475 55 418 55Q315 55 268 -37H215Q209 -19 209 23Q209 127 245 230T346 416Q380 458 417 491T512 562T643 641Q739 694 799 737T895 821Q963 902 963 991Q963 1054 937 1106T862 1197T750 1258T614 1280Q530 1280 457 1248T341 1157T293 1028Q320 1047 342 1047Q362 1047 379 1035T406 1003T416 963Q416 925 387 899T315 872Q269 872 240 907T211 999Q211 1078 250 1151T356 1272Q463 1350 625 1350Q817 1350 934 1233Q986 1181 1014 1118T1042 989Z"/><glyph unicode="3" d="M1061 406Q1061 311 1029 229T934 86T788 -8T608 -41Q444 -41 329 48T213 266Q213 322 243 358T317 395Q357 395 382 369T408 301Q408 265 387 241T330 207Q313 202 313 195Q314 156 357 118T468 54T608 29Q712 29 798 77T934 210T983 397Q983 540 899 631T686 723Q628 723 588 706T498 643L446 684L911 1227H354L344 940H270L276 1303H1042V1266L633 793L637 788Q665 797 717 797Q787 797 849 766T957 682T1032 556T1061 406Z"/><glyph unicode="4" d="M1139 399H799V76H1057V0H465V76H725V399H125V446L686 1346H799V477H1139V399ZM723 477V1262H719L238 477H723Z"/><glyph unicode="5" d="M1034 422Q1034 225 903 94Q768 -41 545 -41Q391 -41 296 19T201 178Q201 221 229 252T293 283Q331 283 354 257T377 188Q377 149 350 123Q336 111 336 100Q336 78 407 55T545 31Q661 31 755 81T903 218T956 412Q956 519 909 604T777 737T584 784Q486 784 416 751T285 643L223 641L297 1303H975V1229H367L315 778Q452 856 586 856Q684 856 766 824T908 735T1000 596T1034 422Z"/><glyph unicode="6" d="M1073 416Q1073 290 1017 185T862 20T643 -41Q566 -41 498 -17T375 54T279 166Q251 212 231 279T199 428T188 588Q188 791 239 953T389 1217Q516 1350 733 1350Q866 1350 941 1305T1016 1180Q1016 1132 991 1105T922 1077Q882 1077 855 1104T827 1171Q827 1206 856 1253Q807 1278 723 1278Q581 1278 480 1196T322 952Q304 899 293 836T268 657L272 653Q344 762 433 812T641 862Q764 862 863 804T1017 645T1073 416ZM995 412Q995 516 949 601T820 734T637 782Q535 782 452 739T322 617T276 440Q276 327 324 236T455 92T641 39Q739 39 820 88T948 222T995 412Z"/><glyph unicode="7" d="M1006 1270L936 1102Q879 967 830 837T751 610T694 408Q679 346 667 285T646 150T629 -20H553Q568 187 600 344Q620 432 634 489T676 630T728 782T809 993Q819 1020 907 1229H328V825H252V1303H1006V1270Z"/><glyph unicode="8" d="M1042 367Q1042 280 1012 205T924 72T790 -15T623 -45Q503 -45 408 8T258 156T203 367Q203 486 260 578Q292 629 330 661T430 723Q333 776 291 843T248 1014Q248 1116 295 1190T429 1305T633 1346Q717 1346 786 1323T904 1258T978 1154T1004 1018Q1004 913 958 841T817 721Q878 691 913 663T975 592Q1042 497 1042 367ZM922 1008Q922 1128 844 1198T633 1268Q541 1268 472 1237T366 1146T330 1008Q330 889 411 822T637 754Q770 754 846 822T922 1008ZM963 369Q963 508 868 594T623 680Q455 680 369 594Q330 555 307 495T283 369Q283 229 382 131T623 33Q764 33 863 131T963 369Z"/><glyph unicode="9" d="M1061 696Q1061 486 983 276Q940 169 862 88Q802 25 720 -8T541 -41Q415 -41 332 13T248 150Q248 191 273 220T334 250Q367 250 392 224T418 162Q418 140 389 90Q386 84 385 82T381 76Q424 27 535 27Q677 27 782 116T938 367Q955 418 963 473T979 637L975 641Q941 590 909 561T823 500Q722 444 604 444Q421 444 300 570T178 885Q178 1016 233 1122T384 1287T604 1346Q684 1346 751 1322T872 1254T969 1139Q998 1087 1018 1019T1049 868T1061 696ZM973 858Q973 967 925 1061T793 1212T614 1268Q537 1268 472 1240T357 1159T280 1038T252 887Q252 785 298 701T427 569T610 520Q708 520 792 565T924 688T973 858Z"/><glyph unicode=":" d="M791 768Q791 727 770 691T715 635T637 614Q572 614 527 659T481 768Q481 808 502 844T558 901T633 922Q677 922 713 902T770 845T791 768ZM791 113Q791 50 746 5T637 -41Q573 -41 527 5T481 113Q481 153 502 189T558 247T633 268Q676 268 712 248T770 191T791 113Z"/><glyph unicode=";" d="M791 758Q791 695 746 650T637 604Q573 604 527 650T481 758Q481 798 502 834T558 892T633 913Q676 913 712 893T770 836T791 758ZM793 90Q793 25 761 -51T672 -195Q634 -239 597 -269T487 -344L451 -291Q618 -159 618 -70Q618 -45 573 -14Q528 17 509 47T489 123Q489 184 532 226T635 268Q680 268 716 245T772 181T793 90Z"/><glyph unicode="&lt;" d="M1106 39L145 432V489L1106 887V793L301 465L1106 127V39Z"/><glyph unicode="=" d="M1126 614H137V694H1126V614ZM1126 168H135V248H1126V168Z"/><glyph unicode="&gt;" d="M1108 430L147 35V129L952 455L147 795V881L1108 489V430Z"/><glyph unicode="?" d="M983 1030Q983 971 963 920T899 824T784 733Q692 674 655 625T618 510V397H545L543 428V477Q543 555 559 605T615 697T733 791Q793 829 819 852Q901 937 901 1034Q901 1103 866 1157T768 1243T627 1274Q558 1274 495 1250T387 1180Q366 1160 354 1139T342 1106Q342 1090 360 1090Q369 1090 385 1094Q392 1095 396 1095T408 1096Q447 1096 474 1067T502 997Q502 953 470 921T391 889Q334 889 293 940T252 1061Q252 1136 302 1203T437 1310T618 1350Q722 1350 805 1310T936 1195T983 1030ZM768 117Q768 74 748 39T693 -16T616 -37Q573 -37 539 -17T484 39T463 117Q463 158 483 192T538 247T612 268Q677 268 722 225T768 117Z"/><glyph unicode="@" d="M1184 -57Q1071 -171 947 -223T674 -276Q414 -276 252 -117Q80 52 80 401Q80 539 111 663T200 880T346 1038Q417 1090 502 1117T672 1145Q736 1145 800 1129T921 1080T1026 1001Q1182 845 1182 569Q1182 432 1144 322T1037 149T885 86Q825 86 798 120T770 227H766Q678 88 549 88Q500 88 458 109T383 171T334 265T317 379Q317 491 367 591T501 751T680 811Q796 811 836 702Q859 723 891 780H942Q934 742 922 696L899 614Q856 460 829 322Q823 282 823 258Q823 215 841 190T893 164Q950 164 999 215Q1054 270 1082 360T1110 565Q1110 677 1080 770T990 931T852 1034T672 1069Q554 1069 459 1023T296 888T192 673T156 395Q156 256 190 145T290 -44T453 -161T670 -201Q827 -201 952 -140T1184 49V-57ZM809 594Q809 660 773 698T672 737Q628 737 587 719T514 668Q458 609 426 530T393 369Q393 280 438 221T553 162Q640 162 711 266Q750 324 779 420T809 594Z"/><glyph unicode="A" d="M1198 0H756V76H961L868 406H395L309 76H502V0H63V76H231L569 1343H690L1036 76H1198V0ZM848 481L633 1276H629L416 481H848Z"/><glyph unicode="B" d="M1116 360Q1116 250 1065 168T918 43T692 0H135V76H330V1223H135V1298H715Q825 1298 906 1263T1031 1162T1075 1008Q1075 936 1050 882T971 787T834 715V711Q941 679 999 629Q1116 527 1116 360ZM993 1008Q993 1108 923 1165T727 1223H410V739H598Q778 739 885 813T993 1008ZM1036 354Q1036 422 1011 480T940 578T829 641T686 664H410V76H709Q809 76 883 110T997 206T1036 354Z"/><glyph unicode="C" d="M1120 487Q1113 373 1093 296T1030 150Q971 54 879 6T670 -43Q439 -43 313 141T186 664Q186 772 201 866T243 1036T313 1173T410 1274Q459 1309 517 1328T633 1348Q835 1348 975 1153Q1003 1222 1006 1346H1067L1096 813H1024Q1008 916 985 980T920 1104Q799 1272 637 1272Q552 1272 480 1229T360 1106Q336 1065 315 987T283 819T272 639Q272 542 286 454T334 276Q361 204 428 133Q525 33 678 33Q847 33 944 168Q992 230 1013 299T1042 487H1120Z"/><glyph unicode="D" d="M1128 643Q1128 453 1069 299Q1039 220 969 145Q900 73 789 37T526 0H78V76H287V1223H76V1298H598Q710 1298 795 1277T940 1213T1042 1100Q1082 1033 1105 909T1128 643ZM1047 696Q1047 784 1034 863T993 1012Q972 1071 918 1128Q829 1223 643 1223H367V76H549Q696 76 802 125T967 274Q986 305 1001 353T1027 457T1042 572T1047 696Z"/><glyph unicode="E" d="M1118 0H74V76H297V1223H72V1300H1077L1096 877H1018V928Q1018 1088 975 1155T827 1223H377V721H502Q571 721 613 739T675 797T694 903V997H772V358H694V446Q694 560 653 601T500 643H377V76H850Q921 76 962 106T1021 203T1040 391V444H1118V0Z"/><glyph unicode="F" d="M1102 745L1032 748Q1032 773 1032 789T1030 825Q1028 870 1024 924Q1018 991 1004 1048T973 1135Q945 1183 901 1203T782 1223H399V756H545Q648 756 692 801T737 948V1034H807V391H739V453Q739 580 696 630T543 680H399V76H672V0H135V76H322V1223H135V1300H1102V745Z"/><glyph unicode="G" d="M1198 506H983V-47H905V135H901Q848 43 767 -2T573 -47Q500 -47 434 -23T315 48T221 162Q189 218 167 296T131 476T117 672Q117 816 149 938T242 1152T385 1291T567 1339Q644 1339 704 1312T836 1217Q876 1285 889 1339H952L981 813H920Q904 925 881 990T817 1114Q714 1262 563 1262Q479 1262 412 1220T297 1095T223 894T197 633Q197 442 258 279Q294 188 358 121Q402 76 459 51T575 25Q640 25 700 53T807 129T879 238T905 362V506H688V584H1198V506Z"/><glyph unicode="H" d="M1186 -2H774V74H938V637H313V74H481V-2H55V74H236V1223H51V1298H479V1221H313V711H938V1221H772V1298H1182V1221H1018V74H1186V-2Z"/><glyph unicode="I" d="M1063 -2H262V74H623V1221H260V1298H1061V1223H700V74H1063V-2Z"/><glyph unicode="J" d="M1059 1223H829V279Q829 123 741 38T492 -47Q386 -47 304 -12T178 86T133 229Q133 293 162 332T238 371Q264 371 286 358T322 321T336 268Q336 182 238 143Q311 31 500 31Q582 31 638 58T723 139T752 266V1223H403V1298H1059V1223Z"/><glyph unicode="K" d="M1192 0H745V76H920L623 715L397 375V76H608V0H104V74H317V1223H109V1298H575V1223H397V510H401L860 1223H672V1298H1139V1223H954L672 793L1006 76H1192V0Z"/><glyph unicode="L" d="M1163 0H111V76H397V1223H111V1298H762V1223H475V76H891Q996 76 1039 124T1083 289V578H1163V0Z"/><glyph unicode="M" d="M1206 0H836V76H989V1223H963L655 0H600L293 1223H264V76H420V0H43V76H190V1223H43V1298H348L625 193H629L907 1298H1206V1223H1063V76H1206V0Z"/><glyph unicode="N" d="M1161 1223H1006V0H870L367 1223H352V76H530V0H111V76H270V1223H82V1298H420L920 78H928V1223H743V1298H1161V1223Z"/><glyph unicode="O" d="M1098 621Q1098 421 1028 233Q994 145 924 72Q815 -43 639 -43Q526 -43 430 13T270 174Q240 225 216 304T179 482T166 670Q166 870 226 1029T393 1268Q496 1341 618 1341Q699 1341 769 1316T896 1242T995 1122Q1042 1045 1070 909T1098 621ZM1018 641Q1018 757 998 869T942 1053Q894 1150 819 1206Q783 1234 732 1251T639 1268Q449 1268 338 1085Q298 1017 272 890T246 629Q246 497 274 386T354 196T480 75T643 33Q763 33 847 103T975 311T1018 641Z"/><glyph unicode="P" d="M1145 934Q1145 820 1095 738T951 611T725 567H395V76H623V0H137V76H315V1223H129V1298H741Q866 1298 957 1254T1097 1128T1145 934ZM1057 932Q1057 1074 969 1148T715 1223H395V645H700Q879 645 968 716T1057 932Z"/><glyph unicode="Q" d="M1178 -104Q1172 -223 1120 -275T956 -328Q851 -328 800 -267T748 -76V-29Q731 -34 692 -41Q652 -45 629 -45Q519 -45 424 13T266 174Q236 227 213 306T177 482T164 670Q164 821 197 945T289 1157T433 1291T623 1339Q737 1339 832 1283T989 1122Q1020 1072 1042 995T1078 817T1092 623Q1092 493 1072 382T1014 197Q982 132 942 89T829 0V-74Q829 -168 861 -210T963 -252Q1031 -252 1066 -214T1102 -104H1178ZM1016 639Q1016 752 996 865T940 1051Q919 1094 884 1137T817 1202Q731 1266 629 1266Q541 1266 463 1218T334 1085Q310 1045 288 969T255 808T244 637Q244 513 264 417T326 233Q338 281 352 305T395 356Q467 418 578 418Q707 418 772 322Q802 277 813 228T825 86Q868 120 891 147T936 217Q1016 371 1016 639ZM750 123Q750 194 729 243T667 318T571 344Q488 344 435 294T377 160Q488 31 641 31Q700 31 745 47V53Q750 91 750 123Z"/><glyph unicode="R" d="M1190 12Q1127 -2 1079 -2Q1011 -2 975 16T919 82T881 229Q863 347 838 412T768 522Q687 604 561 604H365V74H573V0H92V74H287V1223H92V1298H713Q792 1298 856 1275T965 1210T1033 1107T1057 971Q1057 807 944 717Q920 697 888 680T818 653T721 635V631Q780 611 823 573Q920 490 958 246Q975 140 1008 92Q1035 68 1083 68Q1129 68 1190 86V12ZM975 967Q975 1090 901 1156T688 1223H365V680H559Q694 680 787 712T927 809T975 967Z"/><glyph unicode="S" d="M1090 328Q1090 222 1038 136T892 4T682 -43Q613 -43 552 -28T433 21T317 106Q297 48 283 -43H219L203 449H268Q274 362 286 318T330 221Q383 136 479 87T688 37Q754 37 814 58T918 117T985 209T1010 326Q1010 448 911 530Q832 593 621 647Q512 678 440 706T330 762Q297 785 268 819Q203 899 203 1016Q203 1114 250 1188T381 1302T580 1343Q689 1343 772 1310T922 1204Q950 1265 950 1341H1024L1040 877H961Q958 958 947 1006T909 1098Q863 1177 777 1220T580 1264Q514 1264 459 1247T364 1195T304 1115T283 1014Q283 902 367 834Q434 779 645 723Q736 700 816 669T928 614Q953 599 991 565Q1043 511 1066 456T1090 328Z"/><glyph unicode="T" d="M1100 803H1024V924Q1024 1018 1017 1076T991 1166T942 1210T854 1223H666V76H956V0H291V76H586V1223H406Q345 1223 320 1217T276 1190Q229 1142 229 918V803H156V1298H1100V803Z"/><glyph unicode="U" d="M1163 1223H1008V328Q1008 148 911 54T627 -41Q447 -41 354 51Q252 151 252 397V1223H78V1298H518V1223H332V401Q332 306 342 251T379 152Q447 33 633 33Q729 33 795 66T895 166T930 326V1223H737V1298H1163V1223Z"/><glyph unicode="V" d="M1194 1223H997L688 -25H569L260 1223H68V1298H530V1223H340L627 57H631L915 1223H731V1298H1194V1223Z"/><glyph unicode="W" d="M1206 1223H1133L903 -31H827L629 991H625L432 -31H352L125 1223H45V1298H309V1223H199L391 152H395L594 1223H440V1298H811V1223H657L864 154H868L1059 1223H944V1298H1206V1223Z"/><glyph unicode="X" d="M1200 -2H729V74H920L645 590L381 74H586V0H109V74H299L604 666L303 1221H129V1298H575V1223H385L643 741L893 1223H711V1298H1143V1223H971L684 666L999 74H1200V-2Z"/><glyph unicode="Y" d="M1153 1223H981L668 526V76H993V0H262V76H590V530L270 1223H98V1300H549V1223H354L631 631L893 1223H696V1300H1153V1223Z"/><glyph unicode="Z" d="M1085 0H201L911 1223H506Q433 1223 391 1203T331 1137T313 1008V911H236V1298H1042L336 76H774Q919 76 968 118T1018 285V395H1085V0Z"/><glyph unicode="[" d="M932 1245H639V-383H928V-453H563V1317H932V1245Z"/><glyph unicode="\" d="M1135 -479H1051L123 1348H205L1135 -479Z"/><glyph unicode="]" d="M698 -453H330V-381H623V1247H330V1317H698V-453Z"/><glyph unicode="^" d="M1061 872H991L623 1270L270 872H197L567 1348H688L1061 872Z"/><glyph unicode="_" d="M1206 -399H43V-322H1206V-399Z"/><glyph unicode="`" d="M733 1030H676L496 1325H623L733 1030Z"/><glyph unicode="a" d="M1182 -14Q1119 -45 1059 -45Q975 -45 935 -4T885 133Q783 32 695 -6T481 -45Q317 -45 242 33Q180 95 180 182Q180 284 258 367Q295 406 348 432T481 477T684 512Q809 528 885 543V629Q885 704 856 750T766 819T610 842Q539 842 484 827T369 774Q416 742 416 688Q416 645 390 618T322 590Q285 590 259 616T233 678Q233 719 261 763T336 840Q439 913 618 913Q800 913 881 842T963 614V129Q963 83 993 51T1063 18Q1110 18 1182 63V-14ZM885 248V461Q804 447 694 434Q587 421 512 405T390 364T309 303Q260 251 260 190Q260 117 319 72T477 27Q555 27 626 51T761 124T885 248Z"/><glyph unicode="b" d="M1071 446Q1071 308 1020 198T880 25T678 -37Q590 -37 522 -2T383 117Q348 26 348 -25V-37H287V1225H61V1303H362V731H367Q433 828 509 873T684 918Q770 918 841 884T963 787T1042 637T1071 446ZM987 444Q987 558 948 648T838 790T682 842Q543 842 453 725T362 426Q362 342 384 270T448 147T548 70T676 43Q764 43 835 94T947 237T987 444Z"/><glyph unicode="c" d="M1067 250Q1018 133 963 76Q845 -45 659 -45Q529 -45 428 13T272 177T217 424Q217 571 271 681T426 851T657 911Q750 911 828 878T953 789T999 668Q999 626 970 600T897 573Q853 573 824 597T795 659Q795 675 813 709Q829 733 829 748Q829 774 805 796T738 832T649 846Q547 846 466 794T341 647T297 430Q297 311 341 219T466 76T653 25Q881 25 993 250H1067Z"/><glyph unicode="d" d="M1133 0H866V172H862Q795 63 719 15T545 -33Q435 -33 349 26T215 192T166 434Q166 541 194 629T275 782T399 883T557 918Q652 918 725 879T862 754H866V1225H643V1303H946V76H1133V0ZM866 471Q866 658 770 754Q684 840 563 840Q426 840 336 729T246 449Q246 330 283 239T387 96T541 45Q636 45 709 99T824 251T866 471Z"/><glyph unicode="e" d="M1073 432H291Q295 349 307 298T350 195Q396 119 472 77T643 35Q725 35 800 66T922 147Q966 201 981 274H1061Q1046 189 1001 125Q945 45 852 2T647 -41Q548 -41 469 -8T329 91T238 246T207 444Q207 530 228 604T288 737T387 838Q440 876 508 898T643 920Q709 920 771 900T886 842T979 750Q1025 686 1046 616T1073 432ZM987 512Q975 577 956 623T907 709Q809 840 643 840Q562 840 493 808T375 715Q340 671 322 627T293 512H987Z"/><glyph unicode="f" d="M1169 1044Q1169 977 1141 937T1065 897Q1032 897 1011 921T989 981Q989 1007 999 1028T1032 1075Q1065 1111 1065 1137Q1065 1162 1049 1186Q1030 1214 1000 1233T929 1262T834 1272Q737 1272 680 1241T598 1142T573 952V870H891V795H573V76H901V0H211V76H496V795H197V870H496V985Q496 1169 577 1256T829 1343Q994 1343 1083 1253Q1169 1171 1169 1044Z"/><glyph unicode="g" d="M1098 823Q1098 798 1082 781T1040 764Q1013 764 987 793Q964 819 938 819Q902 819 856 776Q891 719 902 688T913 612Q913 525 873 459T757 356T584 319Q551 319 518 324Q470 328 463 328Q390 328 342 292T293 201Q293 162 318 138T400 102T543 90H590H641H686Q702 92 719 92Q885 92 977 32T1069 -137Q1069 -219 1015 -275T854 -360T586 -389Q381 -389 277 -334T172 -170Q172 -95 227 -40T371 29V33Q205 76 205 203Q205 266 249 313T367 381Q303 423 266 485T229 618Q229 748 327 831T578 915Q653 915 711 895T815 831Q896 911 991 911Q1042 911 1070 888T1098 823ZM834 610Q834 675 800 727T704 810T569 840Q496 840 438 811T346 731T313 618Q313 521 393 455T592 389Q696 389 765 452T834 610ZM989 -137Q989 -63 918 -25T709 14Q493 14 375 -32T256 -164Q256 -228 328 -270Q363 -291 437 -303T588 -315Q786 -315 887 -271T989 -137Z"/><glyph unicode="h" d="M1182 0H782V76H944V563Q944 695 891 766T741 838Q615 838 516 739Q397 622 397 401V76H573V0H133V76H322V1225H98V1303H397V702H401Q462 809 545 862T735 915Q873 915 948 821T1024 553V76H1182V0Z"/><glyph unicode="i" d="M719 1223Q719 1172 683 1136T596 1100Q546 1100 511 1135T475 1223Q475 1274 509 1308T594 1343Q646 1343 682 1309T719 1223ZM1014 0H287V78H598V795H266V870H678V78H1014V0Z"/><glyph unicode="j" d="M897 1219Q897 1168 861 1132T774 1096Q724 1096 689 1132T653 1219Q653 1268 688 1304T772 1341Q824 1341 860 1306T897 1219ZM868 -68Q868 -227 769 -316T492 -406Q404 -406 332 -381T213 -309Q180 -276 161 -233T141 -150Q141 -107 166 -79T225 -51Q259 -51 279 -72T299 -131Q299 -163 274 -199Q260 -221 260 -231Q260 -275 332 -306T504 -338Q592 -338 657 -304T757 -205T791 -49V795H285V870H868V-68Z"/><glyph unicode="k" d="M1180 0H762V76H907L623 455L414 236V76H588V0H154V76H336V1225H113V1303H414V344L842 795H633V870H1143V795H940L678 514L1012 76H1180V0Z"/><glyph unicode="l" d="M1077 0H182V76H598V1225H160V1303H678V76H1077V0Z"/><glyph unicode="m" d="M1212 0H909V78H1028V608Q1028 819 903 819Q835 819 774 768T680 631V76H805V0H485V76H600V610Q600 713 570 766T483 819Q362 819 250 610V76H367V0H70V76H172V795H47V870H250V731H254Q310 820 363 857T483 895Q551 895 594 861T664 748Q735 828 791 860T913 893Q1108 893 1108 618V78H1212V0Z"/><glyph unicode="n" d="M1182 0H768V78H936V590Q936 663 911 713T838 789T723 815Q616 815 525 749T362 555V78H537V0H104V76H283V795H92V870H365V680H369Q457 797 539 844T731 891Q866 891 941 814T1016 598V78H1182V0Z"/><glyph unicode="o" d="M1057 434Q1057 335 1024 248T932 95T794 -8T627 -45Q507 -45 408 19T252 194T195 438Q195 564 244 667T385 838Q437 877 497 897T614 918Q797 918 911 799Q954 756 988 696T1039 570T1057 434ZM975 432Q975 549 930 642T807 788T631 840Q528 840 447 789T320 647T274 438Q274 265 374 150T627 35Q726 35 805 86T930 228T975 432Z"/><glyph unicode="p" d="M1114 438Q1114 296 1063 187T920 18T707 -43Q603 -43 530 -3T387 129H383V-322H674V-399H76V-322H305V795H70V870H383V705H387Q458 816 532 861T719 907Q833 907 923 847T1063 681T1114 438ZM1030 436Q1030 551 994 638T889 772Q855 799 809 814T717 829Q583 829 489 735Q436 680 410 606T383 434Q383 257 473 146T709 35Q836 35 926 123Q1030 229 1030 436Z"/><glyph unicode="q" d="M1214 -399H647V-322H915V141H911Q789 -45 575 -45Q488 -45 414 -10T285 89T201 241T172 428Q172 568 224 679T370 851T582 913Q681 913 756 877T897 762Q923 821 940 913H995V-322H1214V-399ZM915 451Q915 526 899 587T852 697T776 778Q693 838 592 838Q492 838 416 788T298 644T256 430Q256 255 348 143T586 31Q681 31 756 84T873 233T915 451Z"/><glyph unicode="r" d="M1135 721Q1135 695 1124 673T1092 637T1047 623Q1009 623 986 648T963 711Q963 739 983 770Q993 783 993 793Q993 813 966 828T897 844Q779 844 659 727Q603 669 564 599T524 489V78H752V0H256V78H444V795H199V870H524V649H528Q614 788 705 850T905 913Q1009 913 1075 850Q1101 825 1118 788T1135 721Z"/><glyph unicode="s" d="M1042 229Q1042 98 953 30T694 -39Q614 -39 552 -26T436 17T334 92Q308 20 295 -41H238V317H299Q305 260 322 224T377 152Q437 97 527 64T707 31Q822 31 892 85T963 227Q963 311 893 365Q863 387 791 403T621 424Q539 428 458 444T340 479Q308 499 291 516Q229 578 229 664Q229 739 274 799T400 891T584 924Q676 924 740 903T877 829Q914 884 928 928H967L977 594H913Q907 643 898 670T868 723Q826 784 747 819T569 854Q452 854 382 804T311 668Q311 603 369 559Q435 508 631 502Q692 501 752 492T858 469T930 438Q971 412 991 383Q1042 317 1042 229Z"/><glyph unicode="t" d="M1090 287Q1090 187 1047 113T924 -1T737 -41Q596 -41 519 32T442 238V795H164V858Q232 862 284 881T369 935T426 1030Q465 1128 467 1303H520V870H922V795H520V219Q520 131 582 80T750 29Q869 29 940 99T1012 287V326H1090V287Z"/><glyph unicode="u" d="M1157 0H913V166H909Q854 72 766 25T559 -23Q417 -23 336 51T254 254V795H45V870H336V262Q336 158 393 102T557 45Q658 45 739 90T867 214T913 389V795H641V870H993V76H1157V0Z"/><glyph unicode="v" d="M1139 795H985L684 -45H567L262 795H92V870H512V795H348L623 23H627L907 795H727V870H1139V795Z"/><glyph unicode="w" d="M1202 795H1116L872 -55H807L625 639H621L440 -55H379L133 795H43V870H332V795H209L408 98H412L592 795H440V870H811V795H657L840 88H844L1044 795H913V870H1202V795Z"/><glyph unicode="x" d="M1159 0H719V78H874L641 391L399 78H580V0H129V78H315L596 449L342 795H160V870H590V795H428L641 510L854 795H696V870H1126V795H946L684 451L963 78H1159V0Z"/><glyph unicode="y" d="M1176 795H1024L664 -119Q609 -256 525 -322T319 -389Q227 -389 165 -348T102 -248Q102 -209 128 -182T195 -154Q233 -154 254 -177T276 -238Q276 -267 256 -297Q248 -308 248 -311Q248 -316 274 -322T328 -328Q421 -328 482 -268T604 -55L240 795H76V870H524V795H324L645 43L942 795H752V870H1176V795Z"/><glyph unicode="z" d="M1004 799L319 76H877L952 334H989V0H201V57L897 795H362L299 561H262V870H1004V799Z"/><glyph unicode="{" d="M905 -397H788Q701 -397 638 -363T541 -265T508 -109V244Q508 340 458 394T315 451V520Q376 523 419 549T485 622T508 735V1071Q508 1207 585 1277T813 1348H899V1278H817Q693 1278 637 1221T580 1036V725Q580 624 546 573T424 494V481Q509 460 545 400T582 219V-106Q582 -219 641 -271T829 -324H905V-397Z"/><glyph unicode="|" d="M700 -344Q700 -369 687 -380T643 -391Q618 -391 608 -381T598 -348V1233Q598 1263 608 1273T649 1284Q700 1284 700 1239V-344Z"/><glyph unicode="}" d="M940 455Q851 450 801 398T750 258V-113Q750 -248 677 -322T467 -397H354V-324H438Q523 -324 576 -300T653 -223T678 -88V248Q678 349 715 404T834 483V498Q748 524 712 578T676 735V1047Q676 1166 620 1222T444 1278H354V1348H449Q748 1348 748 1069V737Q748 637 797 582T940 524V455Z"/><glyph unicode="~" d="M1026 547Q1008 437 944 370T793 303Q709 303 600 412Q518 494 465 494Q353 494 299 309H229Q256 427 319 493T469 559Q552 559 655 453Q739 369 795 369Q904 369 952 547H1026Z"/><glyph unicode=" "/><glyph unicode="¡" d="M782 758Q782 696 737 650T629 604Q566 604 522 649T477 758Q477 820 521 865T627 911Q671 911 706 891T762 836T782 758ZM754 -330Q754 -395 718 -436T625 -477Q572 -477 537 -438T502 -338Q502 -289 528 -190Q561 -77 574 8T592 209H666Q669 126 674 64T692 -57T727 -197Q754 -286 754 -330Z"/><glyph unicode="¢" d="M1176 1333L907 811Q939 773 951 747T963 688Q963 659 950 633T914 591T864 575Q828 575 799 604L506 35Q562 20 610 20Q706 20 795 76T946 231L1006 190Q931 72 831 10T614 -53Q544 -53 471 -33L238 -485H156L406 2Q219 132 219 399Q219 507 251 601T343 764T483 870T657 907Q763 907 848 860L1090 1333H1176ZM768 739Q768 834 649 834Q576 834 510 801T396 711T321 571T293 399Q293 187 438 72L750 672Q768 706 768 739Z"/><glyph unicode="£" d="M1192 305Q1188 228 1176 182T1135 86Q1053 -45 887 -45Q797 -45 718 -7T518 131Q481 69 444 32T363 -24T270 -43Q188 -43 132 7T76 133Q76 185 105 230T185 302T293 330Q342 330 394 308T489 248Q508 308 508 365Q508 479 440 612H166V690H414Q376 782 358 853T340 985Q340 1098 384 1179T511 1303T707 1346Q900 1346 1008 1235Q1044 1201 1064 1159T1085 1077Q1085 1027 1056 995T983 963Q943 963 916 990T889 1055Q889 1090 918 1130Q932 1151 932 1161Q932 1204 859 1239T696 1274Q618 1274 556 1239T459 1140T424 993Q424 935 443 867T508 690H834V612H537Q586 507 586 381Q586 336 579 294T555 205Q674 104 742 68T883 31Q937 31 985 54T1063 119Q1090 157 1101 196T1118 307L1192 305ZM459 178Q359 252 289 252Q237 252 196 218T154 137Q154 94 186 65T264 35Q376 35 459 178Z"/><glyph unicode="¤" d="M1079 150L1030 98L860 268Q803 226 747 206T631 186Q504 186 403 268L227 96L180 143L352 317Q272 429 272 549Q272 679 354 778L184 946L236 997L401 831Q476 880 521 896T629 913Q756 913 858 831L1018 995L1067 946L905 784Q950 723 969 669T989 551Q989 422 907 322L1079 150ZM915 549Q915 626 878 691T776 796T637 836Q556 836 490 798T385 694T346 549Q346 491 368 439T429 348T521 286T631 264Q708 264 773 302T877 407T915 549Z"/><glyph unicode="¥" d="M1122 561H678L657 516V78H981V0H266V78H588V539L578 561H129V637H547L483 784H129V860H451L297 1227H129V1298H563V1227H375L526 860H719L877 1227H680V1298H1122V1227H956L805 860H1122V784H772L711 637H1122V561ZM692 784H561L627 631L692 784Z"/><glyph unicode="¦" d="M686 932H612V1565H686V932ZM686 -346H612V287H686V-346Z"/><glyph unicode="§" d="M1055 362Q1055 255 1006 182T844 43Q975 -46 975 -186Q975 -320 872 -407T608 -494Q458 -494 354 -415T250 -219Q250 -168 279 -132T352 -96Q391 -96 417 -124T444 -195Q444 -248 389 -272Q373 -280 364 -289T354 -309Q354 -354 438 -393T614 -432Q696 -432 761 -401T865 -314T903 -193Q903 -124 858 -68Q830 -30 776 1T606 78Q448 138 360 197Q346 208 333 218T301 246Q193 354 193 494Q193 560 215 617T281 723T395 817Q266 912 266 1044Q266 1129 313 1197T443 1304T631 1343Q785 1343 891 1264T997 1071Q997 1016 968 980T895 944Q857 944 830 971T803 1038Q803 1074 818 1094T870 1126Q903 1139 903 1151Q903 1174 874 1198Q835 1237 771 1260T633 1284Q548 1284 480 1253T372 1167T332 1049Q332 961 406 901Q458 855 625 786Q757 733 833 691T961 596Q1055 498 1055 362ZM985 356Q985 485 870 575Q797 635 600 719Q532 749 511 759T453 786Q262 679 262 498Q262 365 377 274Q438 228 612 156Q700 121 786 80Q881 122 933 193T985 356Z"/><glyph unicode="¨" d="M942 1126Q942 1088 914 1059T846 1030Q808 1030 779 1059T750 1126Q750 1165 778 1194T844 1223Q884 1223 913 1194T942 1126ZM479 1128Q479 1090 451 1061T383 1032Q345 1032 316 1061T287 1128Q287 1153 300 1175T335 1211T381 1225Q421 1225 450 1196T479 1128Z"/><glyph unicode="©" d="M1145 825Q1145 687 1076 567T886 377T627 307Q488 307 368 376T177 565T106 825Q106 963 175 1083T362 1275T616 1346Q726 1346 822 1307T992 1195T1105 1028T1145 825ZM1081 827Q1081 948 1021 1052T858 1219T635 1282Q508 1282 402 1222T234 1057T172 827Q172 735 207 652T306 505T452 406T627 371Q752 371 855 432T1020 598T1081 827ZM842 741Q840 679 832 645T803 575Q773 525 720 493T614 461Q526 461 457 535Q358 636 358 825Q358 976 426 1068T604 1161Q700 1161 776 1067Q790 1121 793 1171H831V915H786Q769 1009 722 1060T602 1112Q514 1112 462 1036T410 829Q410 741 437 669T513 554T621 512Q695 512 742 574T795 741H842Z"/><glyph unicode="ª" d="M1055 672Q996 647 950 647Q904 647 880 670T844 750Q754 686 704 667T582 647Q474 647 408 695T342 823Q342 857 354 889T391 946Q428 983 492 1003T684 1042Q792 1057 846 1071V1120Q846 1197 792 1243T649 1290Q554 1290 489 1249Q493 1248 502 1235Q516 1204 516 1180Q516 1157 499 1142T457 1126Q429 1126 409 1147T389 1198Q389 1240 425 1274T521 1329T657 1350Q779 1350 845 1284T911 1096V823Q911 757 922 734T965 711Q1004 711 1055 737V672ZM846 834V1010Q775 994 662 975Q560 959 514 944T442 903Q412 866 412 827Q412 777 460 743T580 709Q706 709 846 834Z"/><glyph unicode="«" d="M1161 866L719 434L1159 0H1051L608 434L1049 866H1161ZM666 0H555L115 436L553 866H666L225 434L666 0Z"/><glyph unicode="¬" d="M1120 231H1042V559H133V637H1120V231Z"/><glyph unicode="­" d="M1079 395H190V469H1079V395Z"/><glyph unicode="®" d="M1145 825Q1145 687 1076 567T886 377T627 307Q523 307 428 347T261 459T149 627T109 825Q109 962 178 1082T365 1272T616 1343Q762 1343 884 1274T1075 1086T1145 825ZM1079 825Q1079 919 1044 1002T949 1146T807 1243T635 1280Q508 1280 402 1220T234 1056T172 825Q172 734 207 651T305 505T451 407T627 371Q751 371 854 432T1018 598T1079 825ZM895 526Q841 504 815 504Q782 504 764 527T731 608Q701 729 673 764T578 799H496V549H573V496H367V549H442V1094H367V1147H621Q716 1147 765 1104T815 977Q815 914 787 877T694 815Q752 770 772 653Q787 555 827 555Q848 555 895 573V526ZM754 973Q754 1094 616 1094H496V850H586Q673 850 713 879T754 973Z"/><glyph unicode="¯" d="M1010 1030H219L221 1112H1010V1030Z"/><glyph unicode="°" d="M930 987Q930 866 844 780T637 694Q516 694 430 780T344 987Q344 1065 383 1133T488 1240T631 1280Q713 1280 782 1241T890 1136T930 987ZM844 987Q844 1043 817 1090T743 1165T641 1194Q584 1194 534 1167T456 1093T428 987Q428 930 456 882T532 806T637 778Q694 778 741 806T816 882T844 987Z"/><glyph unicode="±" d="M1126 -63H137V14H594V391H137V469H594V926H672V469H1126V391H672V14H1126V-63Z"/><glyph unicode="²" d="M856 1174Q856 1105 815 1059T670 961Q601 927 537 877Q481 819 459 750Q496 766 528 766Q572 766 641 735Q694 715 713 715Q788 715 797 840H850V809Q850 743 816 699T729 655Q696 655 631 680Q558 707 526 707Q496 707 479 698T438 655H393V678Q393 749 420 808T503 919T647 1016Q727 1057 760 1092T793 1174Q793 1210 772 1237T713 1280T627 1296Q563 1296 522 1274T465 1210Q485 1214 492 1214Q520 1214 540 1195T561 1147Q561 1117 537 1095T483 1073Q448 1073 423 1102T397 1171Q397 1250 463 1300T633 1350Q738 1350 797 1303T856 1174Z"/><glyph unicode="³" d="M858 889Q858 824 826 771T734 687T600 657Q503 657 437 705T371 823Q371 858 396 883T455 909Q488 909 508 889T528 838Q528 798 487 774Q473 766 473 758Q473 742 516 728T604 713Q690 713 741 760T793 885Q793 951 756 993T664 1036Q611 1036 553 993L514 1030L739 1266H459L453 1139H393L399 1325H854V1298L653 1087H672Q756 1087 807 1032T858 889Z"/><glyph unicode="´" d="M733 1325L555 1032H494L604 1325H733Z"/><glyph unicode="µ" d="M1163 2H926V166H922Q780 -23 578 -23Q508 -23 457 -1T352 72V-39Q352 -164 346 -262T330 -410H248Q260 -299 264 -229Q272 -96 272 94V784H63V858H342V313Q342 182 404 113T584 43Q674 43 752 86T878 203T926 360V784H696V858H997V72H1163V2Z"/><glyph unicode="¶" d="M1212 1393L1192 1300H950V0H856V1300H543V0H449V705Q364 708 312 720T209 760Q140 801 105 870T70 1034Q70 1148 122 1228T274 1351T520 1393H1212Z"/><glyph unicode="·" d="M770 575Q770 517 729 476T629 434Q571 434 529 475T487 575Q487 634 528 676T627 719Q666 719 698 700T750 647T770 575Z"/><glyph unicode="¸" d="M817 -231Q817 -317 725 -372T492 -428Q443 -428 410 -422V-383H463Q537 -383 585 -347T633 -258Q633 -224 601 -200T520 -176H494L639 16H719L653 -70Q817 -108 817 -231Z"/><glyph unicode="¹" d="M850 682H403V741H606V1260H401V1323H668V741H850V682Z"/><glyph unicode="º" d="M950 995Q950 899 907 819T786 693T616 647Q486 647 395 746T303 991Q303 1084 348 1165T468 1296T629 1346Q716 1346 790 1299T907 1171T950 995ZM881 993Q881 1071 848 1136T758 1241T635 1280Q562 1280 502 1242T408 1137T373 993Q373 876 448 793T631 709Q698 709 756 747T847 849T881 993Z"/><glyph unicode="»" d="M1153 432L713 0H600L1040 432L600 866H711L1153 432ZM657 432L217 0H104L545 432L104 866H215L657 432Z"/><glyph unicode="¼" d="M860 610H389V676H604V1264H391V1329H668V676H860V610ZM1171 393H92V463H1171V393ZM967 -248H715V-410H887V-473H463V-410H653V-248H229V-190L602 287H715V-184H967V-248ZM653 -184V248H649L317 -184H653Z"/><glyph unicode="½" d="M860 612H391V676H604V1264H391V1329H670V676H860V612ZM1171 393H94V467H1171V393ZM944 -301Q935 -392 883 -438T741 -485Q705 -485 676 -477T596 -446Q524 -412 479 -412Q400 -412 379 -485H324V-430Q324 -387 341 -339T387 -254Q420 -211 468 -184T612 -129Q707 -100 744 -82T817 -27Q856 9 856 66Q856 134 794 177T637 221Q571 221 528 204T485 160Q485 148 500 129Q515 104 518 78Q515 46 494 26T438 6Q404 6 379 33T354 96Q354 145 394 189T500 260T635 287Q718 287 784 259T887 179T924 63Q924 -7 879 -61Q849 -101 795 -130T647 -184Q566 -207 522 -228T442 -283Q415 -313 393 -369Q446 -348 492 -348Q536 -348 614 -381Q702 -418 750 -418Q802 -418 833 -390T883 -301H944Z"/><glyph unicode="¾" d="M932 817Q932 763 909 720T841 646T731 598T592 582Q471 582 392 628T313 743Q313 779 336 803T393 827Q427 827 448 807T469 754Q469 724 446 698Q440 692 440 688Q440 671 492 656T602 641Q718 641 791 690T864 815Q864 857 840 891T772 944T674 963Q656 963 604 958Q582 956 557 956Q526 956 514 964T502 991Q502 1012 518 1019T586 1026H608H616Q697 1026 745 1061T793 1155Q793 1213 738 1249T598 1286Q497 1286 446 1229Q458 1223 468 1204T479 1167Q479 1141 457 1121T403 1100Q370 1100 347 1124T324 1182Q324 1226 362 1265T466 1327T604 1350Q722 1350 794 1297T866 1159Q866 1109 842 1077T758 1012Q846 986 889 938T932 817ZM1169 393H92V467H1169V393ZM963 -246H713V-408H883V-473H459V-408H651V-246H225V-186L602 291H713V-182H963V-246ZM651 -182V250H647L313 -182H651Z"/><glyph unicode="¿" d="M805 748Q805 705 785 670T730 615T653 594Q610 594 576 614T521 670T500 748Q500 809 544 855T649 901Q714 901 759 857T805 748ZM1016 -197Q1016 -255 988 -306T910 -398T792 -462T649 -485Q542 -485 459 -445T330 -332T283 -170Q283 -107 302 -59T364 35T489 135Q591 203 619 247T647 387V465H721Q723 446 723 393Q723 251 666 180Q635 142 541 80Q478 40 446 8Q367 -74 367 -170Q367 -238 402 -293T500 -380T643 -412Q785 -412 883 -317Q926 -274 926 -242Q926 -227 909 -227Q907 -227 887 -231Q877 -233 864 -233Q838 -233 816 -220T780 -184T766 -135Q766 -90 800 -59T881 -27Q936 -27 976 -77T1016 -197Z"/><glyph unicode="À" d="M1198 0H756V76H961L868 406H395L309 76H502V0H63V76H231L569 1343H690L1036 76H1198V0ZM848 481L633 1276H629L416 481H848ZM733 1415H676L496 1710H623L733 1415Z"/><glyph unicode="Á" d="M1198 0H756V76H961L868 406H395L309 76H502V0H63V76H231L569 1343H690L1036 76H1198V0ZM848 481L633 1276H629L416 481H848ZM733 1710L555 1417H494L604 1710H733Z"/><glyph unicode="Â" d="M1198 0H756V76H961L868 406H395L309 76H502V0H63V76H231L569 1343H690L1036 76H1198V0ZM848 481L633 1276H629L416 481H848ZM905 1417H825L614 1610L410 1419H324L547 1714H684L905 1417Z"/><glyph unicode="Ã" d="M1198 0H756V76H961L868 406H395L309 76H502V0H63V76H231L569 1343H690L1036 76H1198V0ZM848 481L633 1276H629L416 481H848ZM1001 1593Q982 1508 927 1462T788 1415Q714 1415 586 1479Q482 1528 436 1528Q351 1528 311 1425H229Q255 1514 307 1560T432 1606Q507 1606 637 1544Q740 1495 793 1495Q881 1495 920 1593H1001Z"/><glyph unicode="Ä" d="M1198 0H756V76H961L868 406H395L309 76H502V0H63V76H231L569 1343H690L1036 76H1198V0ZM848 481L633 1276H629L416 481H848ZM942 1511Q942 1473 914 1444T846 1415Q808 1415 779 1444T750 1511Q750 1550 778 1579T844 1608Q884 1608 913 1579T942 1511ZM479 1513Q479 1475 451 1446T383 1417Q345 1417 316 1446T287 1513Q287 1538 300 1560T335 1596T381 1610Q421 1610 450 1581T479 1513Z"/><glyph unicode="Å" d="M1198 0H756V76H961L868 406H395L309 76H502V0H63V76H231L569 1343H690L1036 76H1198V0ZM848 481L633 1276H629L416 481H848ZM803 1606Q803 1528 747 1472T612 1415Q536 1415 479 1472T422 1606Q422 1683 477 1740T610 1798Q692 1798 747 1743T803 1606ZM731 1608Q731 1655 697 1690T616 1726Q566 1726 531 1692T496 1608Q496 1557 530 1523T614 1489Q663 1489 697 1523T731 1608Z"/><glyph unicode="Æ" d="M1186 0H449V76H555V412H301L213 76H311V0H49V76H129L446 1225H311V1298H1149L1169 872H1094Q1088 990 1076 1055T1042 1157T983 1210T885 1225H635V723H694Q775 723 813 772T852 928V995H928V369H850V428Q850 542 812 593T688 645H635V76H889Q965 76 1012 104T1082 191T1104 346V438H1186V0ZM555 487V1225H524L324 487H555Z"/><glyph unicode="Ç" d="M1120 487Q1113 373 1093 296T1030 150Q916 -40 674 -43L653 -70Q817 -108 817 -231Q817 -317 725 -372T492 -428Q443 -428 410 -422V-383H463Q537 -383 585 -347T633 -258Q633 -224 601 -200T520 -176H494L598 -39Q467 -19 375 68T234 308T186 664Q186 772 201 866T243 1036T313 1173T410 1274Q459 1309 517 1328T633 1348Q835 1348 975 1153Q1003 1222 1006 1346H1067L1096 813H1024Q1008 916 985 980T920 1104Q799 1272 637 1272Q552 1272 480 1229T360 1106Q336 1065 315 987T283 819T272 639Q272 542 286 454T334 276Q361 204 428 133Q525 33 678 33Q847 33 944 168Q992 230 1013 299T1042 487H1120Z"/><glyph unicode="È" d="M1118 0H74V76H297V1223H72V1300H1077L1096 877H1018V928Q1018 1088 975 1155T827 1223H377V721H502Q571 721 613 739T675 797T694 903V997H772V358H694V446Q694 560 653 601T500 643H377V76H850Q921 76 962 106T1021 203T1040 391V444H1118V0ZM733 1415H676L496 1710H623L733 1415Z"/><glyph unicode="É" d="M1118 0H74V76H297V1223H72V1300H1077L1096 877H1018V928Q1018 1088 975 1155T827 1223H377V721H502Q571 721 613 739T675 797T694 903V997H772V358H694V446Q694 560 653 601T500 643H377V76H850Q921 76 962 106T1021 203T1040 391V444H1118V0ZM733 1710L555 1417H494L604 1710H733Z"/><glyph unicode="Ê" d="M1118 0H74V76H297V1223H72V1300H1077L1096 877H1018V928Q1018 1088 975 1155T827 1223H377V721H502Q571 721 613 739T675 797T694 903V997H772V358H694V446Q694 560 653 601T500 643H377V76H850Q921 76 962 106T1021 203T1040 391V444H1118V0ZM905 1417H825L614 1610L410 1419H324L547 1714H684L905 1417Z"/><glyph unicode="Ë" d="M1118 0H74V76H297V1223H72V1300H1077L1096 877H1018V928Q1018 1088 975 1155T827 1223H377V721H502Q571 721 613 739T675 797T694 903V997H772V358H694V446Q694 560 653 601T500 643H377V76H850Q921 76 962 106T1021 203T1040 391V444H1118V0ZM942 1511Q942 1473 914 1444T846 1415Q808 1415 779 1444T750 1511Q750 1550 778 1579T844 1608Q884 1608 913 1579T942 1511ZM479 1513Q479 1475 451 1446T383 1417Q345 1417 316 1446T287 1513Q287 1538 300 1560T335 1596T381 1610Q421 1610 450 1581T479 1513Z"/><glyph unicode="Ì" d="M1063 -2H262V74H623V1221H260V1298H1061V1223H700V74H1063V-2ZM733 1415H676L496 1710H623L733 1415Z"/><glyph unicode="Í" d="M1063 -2H262V74H623V1221H260V1298H1061V1223H700V74H1063V-2ZM733 1710L555 1417H494L604 1710H733Z"/><glyph unicode="Î" d="M1063 -2H262V74H623V1221H260V1298H1061V1223H700V74H1063V-2ZM905 1417H825L614 1610L410 1419H324L547 1714H684L905 1417Z"/><glyph unicode="Ï" d="M1063 -2H262V74H623V1221H260V1298H1061V1223H700V74H1063V-2ZM942 1511Q942 1473 914 1444T846 1415Q808 1415 779 1444T750 1511Q750 1550 778 1579T844 1608Q884 1608 913 1579T942 1511ZM479 1513Q479 1475 451 1446T383 1417Q345 1417 316 1446T287 1513Q287 1538 300 1560T335 1596T381 1610Q421 1610 450 1581T479 1513Z"/><glyph unicode="Ð" d="M1124 662Q1124 0 532 0H92V76H287V639H100V715H287V1223H92V1298H635Q882 1298 1003 1141T1124 662ZM1047 698Q1047 868 991 1016Q965 1082 915 1135Q830 1223 672 1223H367V715H657V639H367V76H555Q848 76 965 272Q1002 332 1024 448T1047 698Z"/><glyph unicode="Ñ" d="M1161 1223H1006V0H870L367 1223H352V76H530V0H111V76H270V1223H82V1298H420L920 78H928V1223H743V1298H1161V1223ZM1001 1593Q982 1508 927 1462T788 1415Q714 1415 586 1479Q482 1528 436 1528Q351 1528 311 1425H229Q255 1514 307 1560T432 1606Q507 1606 637 1544Q740 1495 793 1495Q881 1495 920 1593H1001Z"/><glyph unicode="Ò" d="M1098 621Q1098 421 1028 233Q994 145 924 72Q815 -43 639 -43Q526 -43 430 13T270 174Q240 225 216 304T179 482T166 670Q166 870 226 1029T393 1268Q496 1341 618 1341Q699 1341 769 1316T896 1242T995 1122Q1042 1045 1070 909T1098 621ZM1018 641Q1018 757 998 869T942 1053Q894 1150 819 1206Q783 1234 732 1251T639 1268Q449 1268 338 1085Q298 1017 272 890T246 629Q246 497 274 386T354 196T480 75T643 33Q763 33 847 103T975 311T1018 641ZM733 1415H676L496 1710H623L733 1415Z"/><glyph unicode="Ó" d="M1098 621Q1098 421 1028 233Q994 145 924 72Q815 -43 639 -43Q526 -43 430 13T270 174Q240 225 216 304T179 482T166 670Q166 870 226 1029T393 1268Q496 1341 618 1341Q699 1341 769 1316T896 1242T995 1122Q1042 1045 1070 909T1098 621ZM1018 641Q1018 757 998 869T942 1053Q894 1150 819 1206Q783 1234 732 1251T639 1268Q449 1268 338 1085Q298 1017 272 890T246 629Q246 497 274 386T354 196T480 75T643 33Q763 33 847 103T975 311T1018 641ZM733 1710L555 1417H494L604 1710H733Z"/><glyph unicode="Ô" d="M1098 621Q1098 421 1028 233Q994 145 924 72Q815 -43 639 -43Q526 -43 430 13T270 174Q240 225 216 304T179 482T166 670Q166 870 226 1029T393 1268Q496 1341 618 1341Q699 1341 769 1316T896 1242T995 1122Q1042 1045 1070 909T1098 621ZM1018 641Q1018 757 998 869T942 1053Q894 1150 819 1206Q783 1234 732 1251T639 1268Q449 1268 338 1085Q298 1017 272 890T246 629Q246 497 274 386T354 196T480 75T643 33Q763 33 847 103T975 311T1018 641ZM905 1417H825L614 1610L410 1419H324L547 1714H684L905 1417Z"/><glyph unicode="Õ" d="M1098 621Q1098 421 1028 233Q994 145 924 72Q815 -43 639 -43Q526 -43 430 13T270 174Q240 225 216 304T179 482T166 670Q166 870 226 1029T393 1268Q496 1341 618 1341Q699 1341 769 1316T896 1242T995 1122Q1042 1045 1070 909T1098 621ZM1018 641Q1018 757 998 869T942 1053Q894 1150 819 1206Q783 1234 732 1251T639 1268Q449 1268 338 1085Q298 1017 272 890T246 629Q246 497 274 386T354 196T480 75T643 33Q763 33 847 103T975 311T1018 641ZM1001 1593Q982 1508 927 1462T788 1415Q714 1415 586 1479Q482 1528 436 1528Q351 1528 311 1425H229Q255 1514 307 1560T432 1606Q507 1606 637 1544Q740 1495 793 1495Q881 1495 920 1593H1001Z"/><glyph unicode="Ö" d="M1098 621Q1098 421 1028 233Q994 145 924 72Q815 -43 639 -43Q526 -43 430 13T270 174Q240 225 216 304T179 482T166 670Q166 870 226 1029T393 1268Q496 1341 618 1341Q699 1341 769 1316T896 1242T995 1122Q1042 1045 1070 909T1098 621ZM1018 641Q1018 757 998 869T942 1053Q894 1150 819 1206Q783 1234 732 1251T639 1268Q449 1268 338 1085Q298 1017 272 890T246 629Q246 497 274 386T354 196T480 75T643 33Q763 33 847 103T975 311T1018 641ZM942 1511Q942 1473 914 1444T846 1415Q808 1415 779 1444T750 1511Q750 1550 778 1579T844 1608Q884 1608 913 1579T942 1511ZM479 1513Q479 1475 451 1446T383 1417Q345 1417 316 1446T287 1513Q287 1538 300 1560T335 1596T381 1610Q421 1610 450 1581T479 1513Z"/><glyph unicode="×" d="M1006 104L952 49L631 377L307 53L256 111L578 432L256 756L311 811L631 485L954 805L1006 752L686 432L1006 104Z"/><glyph unicode="Ø" d="M1096 643Q1096 425 1028 238Q992 140 924 72Q872 17 797 -12T635 -41Q534 -41 454 0T295 135L152 -78L86 -35L252 211Q207 307 187 409T166 653Q166 881 233 1055Q269 1150 344 1225Q397 1281 473 1312T631 1343Q719 1343 791 1311T926 1212L1012 1337L1077 1292L979 1145Q1041 1043 1068 927T1096 643ZM883 1147Q834 1205 769 1236T631 1268Q543 1268 465 1220T336 1087Q310 1042 289 971T257 818T246 655Q246 430 305 289L883 1147ZM1018 659Q1018 800 999 890T932 1077L344 209Q462 33 639 33Q728 33 805 78T932 205Q952 239 967 287T994 395T1012 523T1018 659Z"/><glyph unicode="Ù" d="M1163 1223H1008V328Q1008 148 911 54T627 -41Q447 -41 354 51Q252 151 252 397V1223H78V1298H518V1223H332V401Q332 306 342 251T379 152Q447 33 633 33Q729 33 795 66T895 166T930 326V1223H737V1298H1163V1223ZM733 1415H676L496 1710H623L733 1415Z"/><glyph unicode="Ú" d="M1163 1223H1008V328Q1008 148 911 54T627 -41Q447 -41 354 51Q252 151 252 397V1223H78V1298H518V1223H332V401Q332 306 342 251T379 152Q447 33 633 33Q729 33 795 66T895 166T930 326V1223H737V1298H1163V1223ZM733 1710L555 1417H494L604 1710H733Z"/><glyph unicode="Û" d="M1163 1223H1008V328Q1008 148 911 54T627 -41Q447 -41 354 51Q252 151 252 397V1223H78V1298H518V1223H332V401Q332 306 342 251T379 152Q447 33 633 33Q729 33 795 66T895 166T930 326V1223H737V1298H1163V1223ZM905 1417H825L614 1610L410 1419H324L547 1714H684L905 1417Z"/><glyph unicode="Ü" d="M1163 1223H1008V328Q1008 148 911 54T627 -41Q447 -41 354 51Q252 151 252 397V1223H78V1298H518V1223H332V401Q332 306 342 251T379 152Q447 33 633 33Q729 33 795 66T895 166T930 326V1223H737V1298H1163V1223ZM942 1511Q942 1473 914 1444T846 1415Q808 1415 779 1444T750 1511Q750 1550 778 1579T844 1608Q884 1608 913 1579T942 1511ZM479 1513Q479 1475 451 1446T383 1417Q345 1417 316 1446T287 1513Q287 1538 300 1560T335 1596T381 1610Q421 1610 450 1581T479 1513Z"/><glyph unicode="Ý" d="M1153 1223H981L668 526V76H993V0H262V76H590V530L270 1223H98V1300H549V1223H354L631 631L893 1223H696V1300H1153V1223ZM733 1710L555 1417H494L604 1710H733Z"/><glyph unicode="Þ" d="M1090 657Q1090 485 982 389T676 293H389V74H571V0H135V74H315V1221H135V1294H569V1221H389V1030H641Q783 1030 884 987T1038 859T1090 657ZM1018 655Q1018 807 921 885T637 963H389V360H627Q824 360 921 433T1018 655Z"/><glyph unicode="ß" d="M1081 377Q1081 261 1041 173T927 35T762 -14Q663 -14 591 50T518 205Q518 263 548 303T623 344Q654 344 673 323T692 268Q692 232 651 188Q621 158 621 139Q621 107 663 84T762 61Q836 61 889 99T972 207T1001 373Q1001 463 977 530T905 644T789 715T629 739H604V805Q681 808 725 819T813 856Q926 927 926 1047Q926 1112 887 1164T778 1245T616 1274Q542 1274 486 1254T389 1192T329 1092T309 956V78H446V0H76V78H233V948Q233 1073 279 1162T415 1300T623 1348Q730 1348 817 1308T955 1198T1006 1040Q1006 865 797 776Q870 754 911 728T991 657Q1081 551 1081 377Z"/><glyph unicode="à" d="M1182 -14Q1119 -45 1059 -45Q975 -45 935 -4T885 133Q783 32 695 -6T481 -45Q317 -45 242 33Q180 95 180 182Q180 284 258 367Q295 406 348 432T481 477T684 512Q809 528 885 543V629Q885 704 856 750T766 819T610 842Q539 842 484 827T369 774Q416 742 416 688Q416 645 390 618T322 590Q285 590 259 616T233 678Q233 719 261 763T336 840Q439 913 618 913Q800 913 881 842T963 614V129Q963 83 993 51T1063 18Q1110 18 1182 63V-14ZM885 248V461Q804 447 694 434Q587 421 512 405T390 364T309 303Q260 251 260 190Q260 117 319 72T477 27Q555 27 626 51T761 124T885 248ZM733 1030H676L496 1325H623L733 1030Z"/><glyph unicode="á" d="M1182 -14Q1119 -45 1059 -45Q975 -45 935 -4T885 133Q783 32 695 -6T481 -45Q317 -45 242 33Q180 95 180 182Q180 284 258 367Q295 406 348 432T481 477T684 512Q809 528 885 543V629Q885 704 856 750T766 819T610 842Q539 842 484 827T369 774Q416 742 416 688Q416 645 390 618T322 590Q285 590 259 616T233 678Q233 719 261 763T336 840Q439 913 618 913Q800 913 881 842T963 614V129Q963 83 993 51T1063 18Q1110 18 1182 63V-14ZM885 248V461Q804 447 694 434Q587 421 512 405T390 364T309 303Q260 251 260 190Q260 117 319 72T477 27Q555 27 626 51T761 124T885 248ZM733 1325L555 1032H494L604 1325H733Z"/><glyph unicode="â" d="M1182 -14Q1119 -45 1059 -45Q975 -45 935 -4T885 133Q783 32 695 -6T481 -45Q317 -45 242 33Q180 95 180 182Q180 284 258 367Q295 406 348 432T481 477T684 512Q809 528 885 543V629Q885 704 856 750T766 819T610 842Q539 842 484 827T369 774Q416 742 416 688Q416 645 390 618T322 590Q285 590 259 616T233 678Q233 719 261 763T336 840Q439 913 618 913Q800 913 881 842T963 614V129Q963 83 993 51T1063 18Q1110 18 1182 63V-14ZM885 248V461Q804 447 694 434Q587 421 512 405T390 364T309 303Q260 251 260 190Q260 117 319 72T477 27Q555 27 626 51T761 124T885 248ZM905 1032H825L614 1225L410 1034H324L547 1329H684L905 1032Z"/><glyph unicode="ã" d="M1182 -14Q1119 -45 1059 -45Q975 -45 935 -4T885 133Q783 32 695 -6T481 -45Q317 -45 242 33Q180 95 180 182Q180 284 258 367Q295 406 348 432T481 477T684 512Q809 528 885 543V629Q885 704 856 750T766 819T610 842Q539 842 484 827T369 774Q416 742 416 688Q416 645 390 618T322 590Q285 590 259 616T233 678Q233 719 261 763T336 840Q439 913 618 913Q800 913 881 842T963 614V129Q963 83 993 51T1063 18Q1110 18 1182 63V-14ZM885 248V461Q804 447 694 434Q587 421 512 405T390 364T309 303Q260 251 260 190Q260 117 319 72T477 27Q555 27 626 51T761 124T885 248ZM1001 1208Q982 1123 927 1077T788 1030Q714 1030 586 1094Q482 1143 436 1143Q351 1143 311 1040H229Q255 1129 307 1175T432 1221Q507 1221 637 1159Q740 1110 793 1110Q881 1110 920 1208H1001Z"/><glyph unicode="ä" d="M1182 -14Q1119 -45 1059 -45Q975 -45 935 -4T885 133Q783 32 695 -6T481 -45Q317 -45 242 33Q180 95 180 182Q180 284 258 367Q295 406 348 432T481 477T684 512Q809 528 885 543V629Q885 704 856 750T766 819T610 842Q539 842 484 827T369 774Q416 742 416 688Q416 645 390 618T322 590Q285 590 259 616T233 678Q233 719 261 763T336 840Q439 913 618 913Q800 913 881 842T963 614V129Q963 83 993 51T1063 18Q1110 18 1182 63V-14ZM885 248V461Q804 447 694 434Q587 421 512 405T390 364T309 303Q260 251 260 190Q260 117 319 72T477 27Q555 27 626 51T761 124T885 248ZM942 1126Q942 1088 914 1059T846 1030Q808 1030 779 1059T750 1126Q750 1165 778 1194T844 1223Q884 1223 913 1194T942 1126ZM479 1128Q479 1090 451 1061T383 1032Q345 1032 316 1061T287 1128Q287 1153 300 1175T335 1211T381 1225Q421 1225 450 1196T479 1128Z"/><glyph unicode="å" d="M1182 -14Q1119 -45 1059 -45Q975 -45 935 -4T885 133Q783 32 695 -6T481 -45Q317 -45 242 33Q180 95 180 182Q180 284 258 367Q295 406 348 432T481 477T684 512Q809 528 885 543V629Q885 704 856 750T766 819T610 842Q539 842 484 827T369 774Q416 742 416 688Q416 645 390 618T322 590Q285 590 259 616T233 678Q233 719 261 763T336 840Q439 913 618 913Q800 913 881 842T963 614V129Q963 83 993 51T1063 18Q1110 18 1182 63V-14ZM885 248V461Q804 447 694 434Q587 421 512 405T390 364T309 303Q260 251 260 190Q260 117 319 72T477 27Q555 27 626 51T761 124T885 248ZM803 1221Q803 1143 747 1087T612 1030Q536 1030 479 1087T422 1221Q422 1298 477 1355T610 1413Q692 1413 747 1358T803 1221ZM731 1223Q731 1270 697 1305T616 1341Q566 1341 531 1307T496 1223Q496 1172 530 1138T614 1104Q663 1104 697 1138T731 1223Z"/><glyph unicode="æ" d="M1186 260Q1140 -41 879 -41Q779 -41 713 1T610 133Q525 39 453 -3T303 -45Q200 -45 131 21T61 186Q61 284 137 360Q177 400 226 422T375 473Q505 512 586 551V641Q586 735 533 790T387 846Q356 846 322 838T257 815T205 782Q279 750 279 690Q279 649 252 622T182 594Q142 594 115 624T88 700Q88 793 174 854T393 915Q483 915 542 887T639 799Q694 862 749 888T877 915Q973 915 1041 862T1147 709T1184 471V432H666V324Q666 181 719 104T872 27Q970 27 1036 102Q1066 135 1081 169T1108 260H1186ZM1096 510Q1087 679 1033 759T872 840Q810 840 764 808T692 719T666 586V510H1096ZM586 229V463Q517 436 426 410Q323 380 281 360T199 301Q145 250 145 182Q145 118 193 75T313 31Q384 31 449 78T586 229Z"/><glyph unicode="ç" d="M1067 250Q1018 133 963 76Q848 -42 672 -45L653 -70Q817 -108 817 -231Q817 -317 725 -372T492 -428Q443 -428 410 -422V-383H463Q537 -383 585 -347T633 -258Q633 -224 601 -200T520 -176H494L596 -41Q483 -28 396 33T263 194T217 424Q217 571 271 681T426 851T657 911Q750 911 828 878T953 789T999 668Q999 626 970 600T897 573Q853 573 824 597T795 659Q795 675 813 709Q829 733 829 748Q829 774 805 796T738 832T649 846Q547 846 466 794T341 647T297 430Q297 311 341 219T466 76T653 25Q881 25 993 250H1067Z"/><glyph unicode="è" d="M1073 432H291Q295 349 307 298T350 195Q396 119 472 77T643 35Q725 35 800 66T922 147Q966 201 981 274H1061Q1046 189 1001 125Q945 45 852 2T647 -41Q548 -41 469 -8T329 91T238 246T207 444Q207 530 228 604T288 737T387 838Q440 876 508 898T643 920Q709 920 771 900T886 842T979 750Q1025 686 1046 616T1073 432ZM987 512Q975 577 956 623T907 709Q809 840 643 840Q562 840 493 808T375 715Q340 671 322 627T293 512H987ZM733 1030H676L496 1325H623L733 1030Z"/><glyph unicode="é" d="M1073 432H291Q295 349 307 298T350 195Q396 119 472 77T643 35Q725 35 800 66T922 147Q966 201 981 274H1061Q1046 189 1001 125Q945 45 852 2T647 -41Q548 -41 469 -8T329 91T238 246T207 444Q207 530 228 604T288 737T387 838Q440 876 508 898T643 920Q709 920 771 900T886 842T979 750Q1025 686 1046 616T1073 432ZM987 512Q975 577 956 623T907 709Q809 840 643 840Q562 840 493 808T375 715Q340 671 322 627T293 512H987ZM733 1325L555 1032H494L604 1325H733Z"/><glyph unicode="ê" d="M1073 432H291Q295 349 307 298T350 195Q396 119 472 77T643 35Q725 35 800 66T922 147Q966 201 981 274H1061Q1046 189 1001 125Q945 45 852 2T647 -41Q548 -41 469 -8T329 91T238 246T207 444Q207 530 228 604T288 737T387 838Q440 876 508 898T643 920Q709 920 771 900T886 842T979 750Q1025 686 1046 616T1073 432ZM987 512Q975 577 956 623T907 709Q809 840 643 840Q562 840 493 808T375 715Q340 671 322 627T293 512H987ZM905 1032H825L614 1225L410 1034H324L547 1329H684L905 1032Z"/><glyph unicode="ë" d="M1073 432H291Q295 349 307 298T350 195Q396 119 472 77T643 35Q725 35 800 66T922 147Q966 201 981 274H1061Q1046 189 1001 125Q945 45 852 2T647 -41Q548 -41 469 -8T329 91T238 246T207 444Q207 530 228 604T288 737T387 838Q440 876 508 898T643 920Q709 920 771 900T886 842T979 750Q1025 686 1046 616T1073 432ZM987 512Q975 577 956 623T907 709Q809 840 643 840Q562 840 493 808T375 715Q340 671 322 627T293 512H987ZM942 1126Q942 1088 914 1059T846 1030Q808 1030 779 1059T750 1126Q750 1165 778 1194T844 1223Q884 1223 913 1194T942 1126ZM479 1128Q479 1090 451 1061T383 1032Q345 1032 316 1061T287 1128Q287 1153 300 1175T335 1211T381 1225Q421 1225 450 1196T479 1128Z"/><glyph unicode="ì" d="M1014 0H287V78H598V795H266V870H678V78H1014V0ZM733 1030H676L496 1325H623L733 1030Z"/><glyph unicode="í" d="M1014 0H287V78H598V795H266V870H678V78H1014V0ZM733 1325L555 1032H494L604 1325H733Z"/><glyph unicode="î" d="M1014 0H287V78H598V795H266V870H678V78H1014V0ZM905 1032H825L614 1225L410 1034H324L547 1329H684L905 1032Z"/><glyph unicode="ï" d="M1014 0H287V78H598V795H266V870H678V78H1014V0ZM942 1126Q942 1088 914 1059T846 1030Q808 1030 779 1059T750 1126Q750 1165 778 1194T844 1223Q884 1223 913 1194T942 1126ZM479 1128Q479 1090 451 1061T383 1032Q345 1032 316 1061T287 1128Q287 1153 300 1175T335 1211T381 1225Q421 1225 450 1196T479 1128Z"/><glyph unicode="ð" d="M1051 438Q1051 306 996 198T844 28T631 -35Q540 -35 463 0T326 101T233 256T199 444Q199 539 231 623T323 772T460 874T621 911Q733 911 831 846L836 850Q805 895 756 948Q651 1064 512 1171L328 1090L303 1145L457 1212L373 1278L410 1327L524 1245L733 1339L760 1284L580 1202Q688 1115 754 1050T883 901Q1051 675 1051 438ZM967 436Q967 555 928 644T815 784Q728 848 633 848Q564 848 501 821T389 745Q281 638 281 451Q281 360 307 283T379 149T489 61T627 29Q690 29 751 55T856 127Q967 241 967 436Z"/><glyph unicode="ñ" d="M1182 0H768V78H936V590Q936 663 911 713T838 789T723 815Q616 815 525 749T362 555V78H537V0H104V76H283V795H92V870H365V680H369Q457 797 539 844T731 891Q866 891 941 814T1016 598V78H1182V0ZM1001 1208Q982 1123 927 1077T788 1030Q714 1030 586 1094Q482 1143 436 1143Q351 1143 311 1040H229Q255 1129 307 1175T432 1221Q507 1221 637 1159Q740 1110 793 1110Q881 1110 920 1208H1001Z"/><glyph unicode="ò" d="M1057 434Q1057 335 1024 248T932 95T794 -8T627 -45Q507 -45 408 19T252 194T195 438Q195 564 244 667T385 838Q437 877 497 897T614 918Q797 918 911 799Q954 756 988 696T1039 570T1057 434ZM975 432Q975 549 930 642T807 788T631 840Q528 840 447 789T320 647T274 438Q274 265 374 150T627 35Q726 35 805 86T930 228T975 432ZM733 1030H676L496 1325H623L733 1030Z"/><glyph unicode="ó" d="M1057 434Q1057 335 1024 248T932 95T794 -8T627 -45Q507 -45 408 19T252 194T195 438Q195 564 244 667T385 838Q437 877 497 897T614 918Q797 918 911 799Q954 756 988 696T1039 570T1057 434ZM975 432Q975 549 930 642T807 788T631 840Q528 840 447 789T320 647T274 438Q274 265 374 150T627 35Q726 35 805 86T930 228T975 432ZM733 1325L555 1032H494L604 1325H733Z"/><glyph unicode="ô" d="M1057 434Q1057 335 1024 248T932 95T794 -8T627 -45Q507 -45 408 19T252 194T195 438Q195 564 244 667T385 838Q437 877 497 897T614 918Q797 918 911 799Q954 756 988 696T1039 570T1057 434ZM975 432Q975 549 930 642T807 788T631 840Q528 840 447 789T320 647T274 438Q274 265 374 150T627 35Q726 35 805 86T930 228T975 432ZM905 1032H825L614 1225L410 1034H324L547 1329H684L905 1032Z"/><glyph unicode="õ" d="M1057 434Q1057 335 1024 248T932 95T794 -8T627 -45Q507 -45 408 19T252 194T195 438Q195 564 244 667T385 838Q437 877 497 897T614 918Q797 918 911 799Q954 756 988 696T1039 570T1057 434ZM975 432Q975 549 930 642T807 788T631 840Q528 840 447 789T320 647T274 438Q274 265 374 150T627 35Q726 35 805 86T930 228T975 432ZM1001 1208Q982 1123 927 1077T788 1030Q714 1030 586 1094Q482 1143 436 1143Q351 1143 311 1040H229Q255 1129 307 1175T432 1221Q507 1221 637 1159Q740 1110 793 1110Q881 1110 920 1208H1001Z"/><glyph unicode="ö" d="M1057 434Q1057 335 1024 248T932 95T794 -8T627 -45Q507 -45 408 19T252 194T195 438Q195 564 244 667T385 838Q437 877 497 897T614 918Q797 918 911 799Q954 756 988 696T1039 570T1057 434ZM975 432Q975 549 930 642T807 788T631 840Q528 840 447 789T320 647T274 438Q274 265 374 150T627 35Q726 35 805 86T930 228T975 432ZM942 1126Q942 1088 914 1059T846 1030Q808 1030 779 1059T750 1126Q750 1165 778 1194T844 1223Q884 1223 913 1194T942 1126ZM479 1128Q479 1090 451 1061T383 1032Q345 1032 316 1061T287 1128Q287 1153 300 1175T335 1211T381 1225Q421 1225 450 1196T479 1128Z"/><glyph unicode="÷" d="M752 801Q752 766 735 737T689 691T625 674Q590 674 561 691T515 737T498 801Q498 853 534 890T623 928Q660 928 689 911T735 865T752 801ZM1122 391H131V469H1122V391ZM758 63Q758 11 720 -26T629 -63Q576 -63 539 -25T502 66Q502 116 539 154T627 193Q681 193 719 156T758 63Z"/><glyph unicode="ø" d="M1059 436Q1059 302 1002 192T846 17T627 -47Q559 -47 497 -24T358 55L274 -41L217 6L305 111Q197 251 197 438Q197 569 254 679T409 852T625 915Q779 915 901 811L993 920L1051 870L952 756Q1059 616 1059 436ZM854 754Q748 838 629 838Q530 838 449 787T322 643T276 440Q276 288 358 172L854 754ZM979 428Q979 572 903 696L408 113Q519 33 633 33Q729 33 808 84T933 228T979 428Z"/><glyph unicode="ù" d="M1157 0H913V166H909Q854 72 766 25T559 -23Q417 -23 336 51T254 254V795H45V870H336V262Q336 158 393 102T557 45Q658 45 739 90T867 214T913 389V795H641V870H993V76H1157V0ZM733 1030H676L496 1325H623L733 1030Z"/><glyph unicode="ú" d="M1157 0H913V166H909Q854 72 766 25T559 -23Q417 -23 336 51T254 254V795H45V870H336V262Q336 158 393 102T557 45Q658 45 739 90T867 214T913 389V795H641V870H993V76H1157V0ZM733 1325L555 1032H494L604 1325H733Z"/><glyph unicode="û" d="M1157 0H913V166H909Q854 72 766 25T559 -23Q417 -23 336 51T254 254V795H45V870H336V262Q336 158 393 102T557 45Q658 45 739 90T867 214T913 389V795H641V870H993V76H1157V0ZM905 1032H825L614 1225L410 1034H324L547 1329H684L905 1032Z"/><glyph unicode="ü" d="M1157 0H913V166H909Q854 72 766 25T559 -23Q417 -23 336 51T254 254V795H45V870H336V262Q336 158 393 102T557 45Q658 45 739 90T867 214T913 389V795H641V870H993V76H1157V0ZM942 1126Q942 1088 914 1059T846 1030Q808 1030 779 1059T750 1126Q750 1165 778 1194T844 1223Q884 1223 913 1194T942 1126ZM479 1128Q479 1090 451 1061T383 1032Q345 1032 316 1061T287 1128Q287 1153 300 1175T335 1211T381 1225Q421 1225 450 1196T479 1128Z"/><glyph unicode="ý" d="M1176 795H1024L664 -119Q609 -256 525 -322T319 -389Q227 -389 165 -348T102 -248Q102 -209 128 -182T195 -154Q233 -154 254 -177T276 -238Q276 -267 256 -297Q248 -308 248 -311Q248 -316 274 -322T328 -328Q421 -328 482 -268T604 -55L240 795H76V870H524V795H324L645 43L942 795H752V870H1176V795ZM733 1325L555 1032H494L604 1325H733Z"/><glyph unicode="þ" d="M1116 438Q1116 334 1087 246T1004 95T877 -2T715 -37Q649 -37 595 -19T492 40T395 145H391V-322H666V-397H78V-322H317V1231H82V1298H391V709H395Q447 783 496 826T599 888T727 907Q813 907 885 874T1009 778T1088 628T1116 438ZM1038 442Q1038 556 1003 642T899 776Q866 802 820 818T729 834Q631 834 554 784T434 644T391 436Q391 258 481 148T717 37Q791 37 851 64T953 144T1016 271T1038 442Z"/><glyph unicode="ÿ" d="M1176 795H1024L664 -119Q609 -256 525 -322T319 -389Q227 -389 165 -348T102 -248Q102 -209 128 -182T195 -154Q233 -154 254 -177T276 -238Q276 -267 256 -297Q248 -308 248 -311Q248 -316 274 -322T328 -328Q421 -328 482 -268T604 -55L240 795H76V870H524V795H324L645 43L942 795H752V870H1176V795ZM942 1126Q942 1088 914 1059T846 1030Q808 1030 779 1059T750 1126Q750 1165 778 1194T844 1223Q884 1223 913 1194T942 1126ZM479 1128Q479 1090 451 1061T383 1032Q345 1032 316 1061T287 1128Q287 1153 300 1175T335 1211T381 1225Q421 1225 450 1196T479 1128Z"/><glyph unicode="ı" d="M1014 0H287V78H598V795H266V870H678V78H1014V0Z"/><glyph unicode="Ł" d="M1161 0H117V76H399V625L176 471L137 528L399 711V1223H117V1298H756V1223H479V766L700 922L743 862L479 680V76H883Q956 76 999 96T1062 161T1083 274V578H1161V0Z"/><glyph unicode="ł" d="M1075 0H190V78H600V735L264 485L225 545L600 821V1227H164V1303H680V881L991 1110L1032 1055L680 795V78H1075V0Z"/><glyph unicode="Œ" d="M1176 0H510Q274 0 174 147Q139 199 117 268T85 432T74 657Q74 814 92 924T150 1106T256 1225Q358 1298 578 1298H1137L1157 874L1085 877Q1072 1028 1051 1098T988 1194T860 1221H623V723H662Q756 723 797 771T838 934V995H915V369H840V406Q840 542 801 593T657 645H623V76H827Q909 76 960 91T1041 140T1083 234T1096 395V440H1176V0ZM541 74V1219Q417 1212 369 1194Q316 1176 276 1140T215 1057Q188 997 171 863T154 598Q154 546 159 490T172 387Q190 284 215 229Q246 168 297 133Q342 102 394 90T541 74Z"/><glyph unicode="œ" d="M1190 262Q1166 111 1089 32T887 -47Q804 -47 741 -14T625 92Q578 18 521 -14T381 -47Q222 -47 143 84Q112 138 92 243T72 461Q72 600 109 701T218 857T389 911Q470 911 525 876T627 760Q672 839 732 876T879 913Q1100 913 1167 655Q1179 612 1183 564T1190 432H672V313Q672 183 727 107T881 31Q971 31 1030 91T1110 262H1190ZM1102 510Q1089 682 1035 763T877 844Q780 844 725 775T669 585Q669 579 669 574T670 561L672 510H1102ZM592 311V485Q592 607 570 684T501 799T381 838Q154 838 154 428Q154 228 212 127T383 25Q483 25 537 100T592 311Z"/><glyph unicode="Š" d="M1090 328Q1090 222 1038 136T892 4T682 -43Q613 -43 552 -28T433 21T317 106Q297 48 283 -43H219L203 449H268Q274 362 286 318T330 221Q383 136 479 87T688 37Q754 37 814 58T918 117T985 209T1010 326Q1010 448 911 530Q832 593 621 647Q512 678 440 706T330 762Q297 785 268 819Q203 899 203 1016Q203 1114 250 1188T381 1302T580 1343Q689 1343 772 1310T922 1204Q950 1265 950 1341H1024L1040 877H961Q958 958 947 1006T909 1098Q863 1177 777 1220T580 1264Q514 1264 459 1247T364 1195T304 1115T283 1014Q283 902 367 834Q434 779 645 723Q736 700 816 669T928 614Q953 599 991 565Q1043 511 1066 456T1090 328ZM903 1710L682 1417H545L324 1710H403L614 1520L817 1710H903Z"/><glyph unicode="š" d="M1042 229Q1042 98 953 30T694 -39Q614 -39 552 -26T436 17T334 92Q308 20 295 -41H238V317H299Q305 260 322 224T377 152Q437 97 527 64T707 31Q822 31 892 85T963 227Q963 311 893 365Q863 387 791 403T621 424Q539 428 458 444T340 479Q308 499 291 516Q229 578 229 664Q229 739 274 799T400 891T584 924Q676 924 740 903T877 829Q914 884 928 928H967L977 594H913Q907 643 898 670T868 723Q826 784 747 819T569 854Q452 854 382 804T311 668Q311 603 369 559Q435 508 631 502Q692 501 752 492T858 469T930 438Q971 412 991 383Q1042 317 1042 229ZM903 1325L682 1032H545L324 1325H403L614 1135L817 1325H903Z"/><glyph unicode="Ÿ" d="M1153 1223H981L668 526V76H993V0H262V76H590V530L270 1223H98V1300H549V1223H354L631 631L893 1223H696V1300H1153V1223ZM942 1511Q942 1473 914 1444T846 1415Q808 1415 779 1444T750 1511Q750 1550 778 1579T844 1608Q884 1608 913 1579T942 1511ZM479 1513Q479 1475 451 1446T383 1417Q345 1417 316 1446T287 1513Q287 1538 300 1560T335 1596T381 1610Q421 1610 450 1581T479 1513Z"/><glyph unicode="Ž" d="M1085 0H201L911 1223H506Q433 1223 391 1203T331 1137T313 1008V911H236V1298H1042L336 76H774Q919 76 968 118T1018 285V395H1085V0ZM903 1710L682 1417H545L324 1710H403L614 1520L817 1710H903Z"/><glyph unicode="ž" d="M1004 799L319 76H877L952 334H989V0H201V57L897 795H362L299 561H262V870H1004V799ZM903 1325L682 1032H545L324 1325H403L614 1135L817 1325H903Z"/><glyph unicode="ƒ" d="M1192 1137Q1192 1064 1162 1019T1081 973Q1050 973 1028 993T1006 1042Q1006 1063 1015 1080T1049 1120Q1090 1162 1090 1194Q1090 1233 1053 1257T958 1282Q867 1282 806 1216T729 1034L711 877H944L938 799H702L610 -39Q598 -149 557 -229T450 -353T301 -397Q201 -397 129 -336T57 -184Q57 -122 91 -73T170 -23Q201 -23 220 -43T240 -96Q240 -130 201 -176Q166 -214 166 -236Q166 -272 209 -300T309 -328Q405 -328 463 -250T537 -23L627 797H393L403 874H635L655 1042Q673 1183 759 1267T971 1352Q1024 1352 1064 1338T1134 1296T1177 1228T1192 1137Z"/><glyph unicode="ˆ" d="M905 1032H825L614 1225L410 1034H324L547 1329H684L905 1032Z"/><glyph unicode="ˇ" d="M903 1325L682 1032H545L324 1325H403L614 1135L817 1325H903Z"/><glyph unicode="˘" d="M915 1290Q882 1156 795 1093T555 1030Q381 1030 293 1137Q266 1169 254 1195T219 1290H301Q340 1188 400 1148T571 1108Q674 1108 735 1150T836 1290H915Z"/><glyph unicode="˙" d="M711 1126Q711 1088 682 1059T614 1030Q576 1030 548 1059T520 1126Q520 1165 548 1194T614 1223Q653 1223 682 1194T711 1126Z"/><glyph unicode="˚" d="M803 1221Q803 1143 747 1087T612 1030Q536 1030 479 1087T422 1221Q422 1298 477 1355T610 1413Q692 1413 747 1358T803 1221ZM731 1223Q731 1270 697 1305T616 1341Q566 1341 531 1307T496 1223Q496 1172 530 1138T614 1104Q663 1104 697 1138T731 1223Z"/><glyph unicode="˛" d="M793 -250Q771 -319 723 -358T612 -397Q541 -397 490 -342T438 -211Q438 -106 547 0H618Q556 -74 534 -116T512 -205Q512 -256 545 -293T621 -330Q678 -330 725 -250H793Z"/><glyph unicode="˜" d="M1001 1208Q982 1123 927 1077T788 1030Q714 1030 586 1094Q482 1143 436 1143Q351 1143 311 1040H229Q255 1129 307 1175T432 1221Q507 1221 637 1159Q740 1110 793 1110Q881 1110 920 1208H1001Z"/><glyph unicode="˝" d="M860 1325L676 1030H616L725 1325H860ZM604 1327L428 1032H369L477 1327H604Z"/><glyph unicode="Δ" d="M671 1409L1104 315L1200 72V0H41V70L135 313Q241 590 346 861T561 1409H671ZM616 1358Q612 1348 600 1316T570 1236T530 1129T484 1005T436 877T389 754L127 72H1114L782 924Q765 967 747 1014T710 1108T675 1197T646 1273T625 1329T616 1358Z"/><glyph unicode="Ω" d="M157 0V72H437V134Q360 173 308 236T225 375T180 537T167 706Q165 832 198 947T292 1151T437 1292T620 1343Q719 1344 803 1292T947 1152T1041 948T1073 706Q1074 622 1061 537T1016 376T932 236T803 134V72H1083V0H721L722 178Q797 208 848 261T932 383T978 528T993 684Q993 732 987 793T966 918T923 1045T855 1157T756 1238T620 1272Q542 1270 485 1239T386 1158T317 1046T275 919T253 793T247 684Q247 606 261 529T308 383T392 261T519 177V0H157Z"/><glyph unicode="π" d="M1123 258Q1116 197 1105 154T1073 74Q1049 26 1007 -2T916 -31Q881 -31 847 -15T793 29Q761 73 747 136T733 305Q733 367 740 463Q743 490 745 515T754 614Q756 632 759 662T766 717L772 770H512L508 709Q491 415 469 259T410 36T316 -31Q282 -31 257 -6T232 53Q232 80 244 105T287 172Q333 231 355 285T393 428Q408 513 415 588T428 770H383Q333 770 309 764T258 737Q212 701 168 627H129Q181 787 245 851T420 915H1123V770H881Q864 661 855 548T846 332Q846 239 879 190T971 141Q1068 141 1088 258H1123Z"/><glyph unicode="–" d="M1266 399H-4V463H1266V399Z"/><glyph unicode="—" d="M1266 399H-4V463H1266V399Z"/><glyph unicode="‘" d="M774 1284Q711 1245 670 1193T629 1100Q629 1069 676 1038Q720 1010 739 981T758 911Q758 855 720 816T625 776Q559 776 516 827T473 954Q473 1026 506 1101T601 1239T741 1346L774 1284Z"/><glyph unicode="’" d="M776 1176Q776 1035 668 907Q602 832 508 778L475 840Q545 885 584 935T623 1034Q623 1058 575 1085Q527 1117 508 1145T489 1214Q489 1272 528 1311T627 1350Q691 1350 733 1301T776 1176Z"/><glyph unicode="‚" d="M793 90Q793 23 762 -51T672 -195Q635 -240 598 -269T485 -346L449 -291Q616 -159 616 -72Q616 -45 571 -16Q525 17 506 48T487 123Q487 183 530 224T633 266Q702 266 747 217T793 90Z"/><glyph unicode="“" d="M1008 1284Q943 1244 902 1193T860 1100Q860 1070 909 1040Q954 1012 972 983T991 911Q991 855 953 816T858 776Q792 776 750 827T707 954Q707 1065 780 1173T975 1346L1008 1284ZM569 1284Q504 1244 463 1192T422 1100Q422 1070 471 1038Q515 1010 534 981T553 911Q553 855 515 816T420 776Q354 776 311 827T268 954Q268 1066 342 1174T537 1346L569 1284Z"/><glyph unicode="”" d="M1012 1161Q1012 1020 901 893Q870 857 839 833T750 776L719 834Q786 877 825 928T864 1028Q864 1043 855 1054T817 1081Q772 1111 754 1140T735 1210Q735 1268 771 1302T866 1337Q907 1337 941 1315T993 1253T1012 1161ZM555 1163Q555 1020 444 897Q387 832 293 780L264 838Q329 879 368 930T408 1030Q408 1056 362 1085Q316 1114 298 1143T279 1214Q279 1272 315 1306T410 1341Q474 1341 514 1292T555 1163Z"/><glyph unicode="„" d="M1022 90Q1022 23 991 -51T901 -195Q862 -242 827 -270T715 -346L678 -291Q848 -160 848 -72Q848 -46 801 -16Q756 15 738 47T719 123Q719 183 760 224T862 266Q931 266 976 217T1022 90ZM586 90Q586 24 555 -51T465 -195Q426 -242 390 -271T281 -346L244 -291Q412 -158 412 -72Q412 -46 367 -16Q320 17 302 48T283 123Q283 184 325 225T428 266Q498 266 542 217T586 90Z"/><glyph unicode="†" d="M1143 653Q1088 659 1036 659H662V-96Q662 -201 663 -283T668 -422L670 -463H580V-442V-285V657H317Q184 657 104 649V743Q173 737 221 737H580L582 999Q582 1104 582 1135T580 1200Q578 1241 576 1268T573 1327H668L666 1303Q659 1237 659 1130V739H969Q1057 739 1122 745L1143 748V653Z"/><glyph unicode="‡" d="M1143 774Q1103 780 1065 780H659V98H885Q1041 98 1139 111V16Q1071 23 1020 23H659V-336V-361Q659 -394 664 -428L668 -461H569Q575 -427 579 -371T584 -250V20H299Q181 20 104 12V109Q165 98 246 98H584V780H358Q244 780 182 776Q136 773 109 768V864Q182 856 246 856H586V1133Q586 1248 580 1327H672Q659 1213 659 1120V856H981Q1080 856 1143 864V774Z"/><glyph unicode="•" d="M879 641Q879 535 805 461T625 387Q520 387 446 461T371 641Q371 707 405 766T497 860T621 895Q675 895 721 877T803 823T859 741T879 641Z"/><glyph unicode="…" d="M1112 61Q1112 32 1091 11T1040 -10Q1009 -10 988 11T967 61Q967 91 988 112T1038 133Q1069 133 1090 113T1112 61ZM705 66Q705 36 684 15T633 -6Q603 -6 582 15T561 66Q561 94 581 115T631 137Q662 137 683 117T705 66ZM297 63Q297 34 276 13T225 -8Q195 -8 175 13T154 63Q154 92 173 113T223 135Q254 135 275 115T297 63Z"/><glyph unicode="‰" d="M1194 80Q1194 10 1173 -51T1115 -146T1032 -180Q968 -180 929 -116T889 53Q889 169 933 241T1049 313Q1113 313 1153 248T1194 80ZM887 1352L104 -416H23L750 1227L745 1231Q685 1192 612 1157Q450 1079 322 1028Q385 967 385 821Q385 753 364 693T306 600T223 567Q161 567 122 629T82 795Q82 870 103 931T162 1030Q177 1045 256 1075Q305 1093 381 1128T539 1204T700 1290Q739 1312 788 1352H887ZM782 82Q782 11 762 -49T704 -144T621 -178Q558 -178 517 -114T475 55Q475 169 520 242T637 315Q701 315 741 250T782 82ZM1122 74Q1122 153 1102 199T1044 246Q1010 246 983 192T956 63Q956 -12 979 -62T1036 -113Q1071 -113 1096 -57T1122 74ZM317 823Q317 896 297 941T244 987Q205 987 180 936T154 803Q154 729 173 683T227 637Q266 637 291 690T317 823ZM711 76Q711 152 690 199T633 246Q598 246 572 193T545 66Q545 -12 568 -62T625 -113Q660 -113 685 -57T711 76Z"/><glyph unicode="‹" d="M909 864L469 434L907 0H799L356 434L797 864H909Z"/><glyph unicode="›" d="M909 432L471 0H358L799 432L358 866H469L909 432Z"/><glyph unicode="⁄" d="M1167 444H84V508H1167V444Z"/><glyph unicode="⁴" d="M867 872H669V741H811V682H445V741H606V872H249V922L565 1322H669V926H867V872ZM606 926V1287H602L323 926H606Z"/><glyph unicode="€" d="M1120 426Q1103 228 1024 129Q887 -43 670 -43Q534 -43 433 22T271 214T193 518H63V596H188Q186 618 186 664V709H63V786H193Q206 956 262 1081T410 1274Q459 1309 517 1328T633 1348Q703 1348 763 1332T875 1276T973 1174Q990 1217 997 1250T1006 1346H1067L1094 854H1022Q1006 953 985 1007T918 1124Q812 1272 637 1272Q552 1272 480 1229T360 1106Q332 1055 311 968T281 786H977V709H274Q272 686 272 639V596H950V518H279Q291 388 334 276Q361 204 428 133Q525 33 678 33Q831 33 938 147Q1033 254 1042 426H1120Z"/><glyph unicode="™" d="M1229 676H1038V731H1106V1274H1087L932 680H907L737 1272H719V731H793V676H594V731H670V1274H594V1327H768L918 809H922L1053 1327H1227V1274H1157V731H1229V676ZM512 1034H465V1157Q465 1231 451 1251T385 1272H295V731H428V676H111V731H250V1272H160Q112 1272 96 1248T80 1149V1034H33V1325H512V1034Z"/><glyph unicode="Ω" d="M879 641Q879 535 805 461T625 387Q520 387 446 461T371 641Q371 707 405 766T497 860T621 895Q675 895 721 877T803 823T859 741T879 641Z"/><glyph unicode="∂" d="M477 1417Q498 1429 525 1440T582 1461T644 1475T710 1481Q821 1481 896 1440T1017 1328T1083 1166T1106 973Q1106 950 1105 926T1102 877Q1090 670 1042 503T914 219T730 37T499 -27Q406 -27 341 4T236 87T177 206T159 346Q159 400 169 464T200 594T255 724T334 843T439 939T573 999Q604 1009 636 1012T704 1016Q753 1015 797 1001T877 961T941 899T987 819H991Q994 848 994 883T995 958Q995 1170 919 1281T692 1393Q627 1393 564 1372T448 1313L477 1417ZM966 707Q955 753 930 793T870 864T790 912T696 930Q621 930 561 902T455 827T374 719T319 594T287 465T276 348Q276 289 290 238T333 148T408 88T516 66Q578 66 632 91T733 162T817 268T884 400T934 550T966 707Z"/><glyph unicode="∆" d="M879 641Q879 535 805 461T625 387Q520 387 446 461T371 641Q371 707 405 766T497 860T621 895Q675 895 721 877T803 823T859 741T879 641Z"/><glyph unicode="∏" d="M1007 -455V1307H229V-455H113V1409H1120V-455H1007Z"/><glyph unicode="∑" d="M92 -455V-381L748 483L106 1335V1409H1063V1309H258L883 483L246 -356H1143V-455H92Z"/><glyph unicode="−" d="M1118 389H139V465H1118V389Z"/><glyph unicode="√" d="M653 -6H592L299 813H121V895H360L618 166L1061 1620H1149L653 -6Z"/><glyph unicode="∞" d="M1140 596Q1140 521 1123 453T1073 334T995 253T892 223Q853 223 816 239T745 289T678 378T615 510Q586 442 552 389T482 300T409 244T335 225Q277 225 229 251T147 326T93 442T74 594Q74 674 92 742T143 860T225 938T334 967Q372 967 409 951T483 901T552 812T614 680Q671 817 740 891T892 965Q948 965 993 939T1071 864T1122 748T1140 596ZM1050 598Q1050 657 1038 708T1003 798T950 857T883 879Q820 879 769 808T669 594Q713 450 765 381T883 311Q922 311 953 333T1005 394T1038 485T1050 598ZM558 595Q513 738 457 809T334 881Q294 881 263 859T209 797T176 705T164 592Q164 536 174 485T206 396T260 336T334 313Q397 313 453 382T558 595Z"/><glyph unicode="∫" d="M840 1454Q872 1454 905 1450T957 1438V1339Q940 1347 909 1355T844 1364Q789 1364 754 1342T697 1284T668 1201T660 1106V86Q660 30 659 -25T656 -137Q654 -232 629 -293T563 -391T471 -441T367 -455Q335 -455 302 -451T250 -438V-340Q267 -348 297 -356T363 -365Q418 -365 453 -344T509 -288T537 -206T545 -106V911Q545 1026 551 1137Q553 1232 578 1293T644 1390T736 1440T840 1454Z"/><glyph unicode="≈" d="M1001 339Q982 254 927 208T788 161Q714 161 586 225Q482 274 436 274Q351 274 311 171H229Q255 260 307 306T432 352Q507 352 637 290Q740 241 793 241Q881 241 920 339H1001ZM1001 695Q982 610 927 564T788 517Q714 517 586 581Q482 630 436 630Q351 630 311 527H229Q255 616 307 662T432 708Q507 708 637 646Q740 597 793 597Q881 597 920 695H1001Z"/><glyph unicode="≠" d="M1126 614H770L584 248H1126V168H543L391 -131H305L457 168H135V248H498L685 614H137V694H726L869 974H953L810 694H1126V614Z"/><glyph unicode="≤" d="M1109 316L148 709V766L1109 1164V1070L304 742L1109 404V316ZM1121 171H142V247H1121V171Z"/><glyph unicode="≥" d="M154 404L959 742L154 1070V1164L1115 766V709L154 316V404ZM142 247H1121V171H142V247Z"/><glyph unicode="◊" d="M658 0H591L144 715L591 1436H658L1105 717L658 0ZM626 1341L241 717L626 88L1009 717L626 1341Z"/><glyph unicode="ﬁ" d="M1163 0H702V78H870V795H401V78H596V0H129V78H324V795H129V870H324V961Q324 1147 418 1247T688 1348Q773 1348 842 1324T950 1256T989 1161Q989 1113 956 1082T870 1051Q828 1051 798 1074T768 1133Q768 1148 778 1174Q786 1201 786 1214Q786 1274 674 1274Q585 1274 524 1238T432 1130T401 952V870H950V78H1163V0Z"/><glyph unicode="ﬂ" d="M1167 0H684V78H885V1227L864 1231Q794 1246 768 1252T705 1264T637 1270Q543 1270 487 1240T405 1145T379 975V870H604V795H379V78H596V0H92V78H299V795H74V870H299V946Q299 1148 376 1240T623 1333Q720 1333 924 1292L944 1288Q943 1288 965 1284V78H1167V0Z"/></font>
</defs>
</svg>
